<?xml version="1.0" standalone="no"?>
<!DOCTYPE svg PUBLIC "-//W3C//DTD SVG 1.1//EN" "http://www.w3.org/Graphics/SVG/1.1/DTD/svg11.dtd">
<svg xmlns="http://www.w3.org/2000/svg">
<metadata>Copyright (C) 2015 by original authors @ fontello.com</metadata>
<defs>
<font id="fontello" horiz-adv-x="1000" >
<font-face font-family="fontello" font-weight="400" font-stretch="normal" units-per-em="1000" ascent="850" descent="-150" />
<missing-glyph horiz-adv-x="1000" />
<glyph glyph-name="mail-alt" unicode="&#x32;" d="m1000 454v-443q0-37-26-63t-63-27h-822q-36 0-63 27t-26 63v443q25-28 56-49 202-137 278-192 32-24 51-37t53-27 61-13h2q28 0 61 13t53 27 51 37q95 68 278 192 32 22 56 49z m0 164q0-44-27-84t-68-69q-210-146-262-181-5-4-23-17t-30-22-29-18-33-15-27-5h-2q-12 0-27 5t-33 15-29 18-30 22-23 17q-51 35-147 101t-114 80q-35 23-65 64t-31 77q0 43 23 72t66 29h822q36 0 62-26t27-63z" horiz-adv-x="1000" />
<glyph glyph-name="star" unicode="&#x35;" d="m929 489q0-12-15-27l-203-197 48-279q1-4 1-12 0-11-6-19t-17-9q-10 0-22 7l-251 132-250-132q-13-7-23-7-11 0-17 9t-6 19q0 4 1 12l48 279-203 197q-14 15-14 27 0 21 31 26l280 40 126 254q11 23 27 23t28-23l125-254 280-40q32-5 32-26z" horiz-adv-x="928.6" />
<glyph glyph-name="star-empty" unicode="&#x36;" d="m634 290l171 165-235 35-106 213-105-213-236-35 171-165-41-235 211 111 211-111z m295 199q0-12-15-27l-203-197 48-279q1-4 1-12 0-28-23-28-10 0-22 7l-251 132-250-132q-13-7-23-7-11 0-17 9t-6 19q0 4 1 12l48 279-203 197q-14 15-14 27 0 21 31 26l280 40 126 254q11 23 27 23t28-23l125-254 280-40q32-5 32-26z" horiz-adv-x="928.6" />
<glyph glyph-name="phone" unicode="&#x39;" d="m786 158q0-15-6-39t-12-38q-11-28-68-60-52-28-103-28-16 0-30 2t-32 7-26 8-31 11-28 10q-54 20-97 47-72 44-148 120t-120 148q-27 43-46 97-2 5-10 28t-12 31-8 26-7 32-2 29q0 52 29 104 31 56 59 68 14 6 38 12t39 6q8 0 12-2 10-3 30-43 6-10 16-30t20-35 17-30q2-2 10-14t12-20 4-16q0-11-16-28t-35-30-34-30-16-25q0-5 3-13t4-11 8-14 7-10q42-77 97-132t131-97q1 0 10-6t14-8 11-5 13-2q10 0 25 15t30 35 31 35 28 16q7 0 15-4t20-12 14-10q14-8 30-17t35-20 31-17q39-19 42-29 2-4 2-12z" horiz-adv-x="785.7" />
<glyph glyph-name="cubes" unicode="&#x74;" d="m357-61l214 107v176l-214-92v-191z m-36 254l226 96-226 97-225-97z m608-254l214 107v176l-214-92v-191z m-36 254l225 96-225 97-226-97z m-250 163l214 92v149l-214-92v-149z m-36 212l246 105-246 106-246-106z m607-289v-233q0-20-10-37t-29-26l-250-125q-14-8-32-8t-32 8l-250 125q-3 1-4 2-1-1-4-2l-250-125q-14-8-32-8t-31 8l-250 125q-19 9-29 26t-11 37v233q0 21 12 39t32 26l242 104v223q0 22 12 39t31 27l250 107q13 6 28 6t28-6l250-107q20-9 32-27t12-39v-223l242-104q20-9 32-26t11-40z" horiz-adv-x="1285.7" />
<glyph glyph-name="link" unicode="&#xe800;" d="m812 171q0 23-15 38l-116 116q-16 16-38 16-24 0-40-18 1-1 10-10t12-12 9-11 7-14 2-15q0-23-16-38t-38-16q-8 0-15 2t-14 7-11 9-12 12-10 10q-19-17-19-40 0-23 16-38l115-116q15-15 38-15 22 0 38 15l82 81q15 16 15 37z m-392 394q0 22-15 38l-115 115q-16 16-38 16-22 0-38-15l-82-82q-16-15-16-37 0-22 16-38l116-116q15-15 38-15 23 0 40 17-2 2-11 11t-12 12-8 10-7 14-2 16q0 22 15 38t38 15q9 0 16-2t14-7 10-8 12-12 11-11q18 17 18 41z m500-394q0-67-48-113l-82-81q-46-47-113-47-68 0-114 48l-115 115q-46 47-46 114 0 68 49 116l-49 49q-48-49-116-49-67 0-114 47l-116 116q-47 47-47 114t47 113l82 82q47 46 114 46 67 0 114-47l114-116q47-46 47-113 0-69-49-117l49-49q48 49 116 49 67 0 114-47l116-116q47-47 47-114z" horiz-adv-x="928.6" />
<glyph glyph-name="camera-1" unicode="&#xe801;" d="m536 475q66 0 113-47t47-114-47-113-113-47-114 47-47 113 47 114 114 47z m393 232q59 0 101-42t41-101v-500q0-59-41-101t-101-42h-786q-59 0-101 42t-42 101v500q0 59 42 101t101 42h125l28 76q11 27 39 47t58 20h286q29 0 57-20t39-47l29-76h125z m-393-643q103 0 176 74t74 176-74 177-176 73-177-73-73-177 73-176 177-74z" horiz-adv-x="1071.4" />
<glyph glyph-name="eye" unicode="&#xe802;" d="m929 314q-85 132-213 197 34-58 34-125 0-104-73-177t-177-73-177 73-73 177q0 67 34 125-128-65-213-197 75-114 187-182t242-68 242 68 187 182z m-402 215q0 11-8 19t-19 7q-70 0-120-50t-50-119q0-12 8-19t19-8 19 8 8 19q0 48 34 82t82 34q11 0 19 8t8 19z m473-215q0-19-11-38-78-129-210-206t-279-77-279 77-210 206q-11 19-11 38t11 39q78 128 210 205t279 78 279-78 210-205q11-20 11-39z" horiz-adv-x="1000" />
<glyph glyph-name="left-open-mini" unicode="&#xe803;" d="m252 180q26-26 0-48-26-26-48 0l-192 194q-24 24 0 50l192 194q22 26 48 0 26-22 0-48l-156-172z" horiz-adv-x="265" />
<glyph glyph-name="right-open-mini" unicode="&#xe804;" d="m13 180l158 170-158 172q-26 26 0 48 26 26 48 0l192-194q24-26 0-50l-192-194q-22-26-48 0-26 22 0 48z" horiz-adv-x="265" />
<glyph glyph-name="down-open-mini" unicode="&#xe805;" d="m405 470q22 26 48 0 26-22 0-48l-196-192q-22-22-48 0l-196 192q-26 26 0 48 24 24 50 0l170-156z" horiz-adv-x="466" />
<glyph glyph-name="up-open-mini" unicode="&#xe806;" d="m62 230q-26-22-50 0-24 24 0 50l196 190q26 26 48 0l196-190q24-26 0-50-24-22-50 0l-170 158z" horiz-adv-x="464" />
<glyph glyph-name="paper-plane-empty" unicode="&#xe807;" d="m984 844q19-14 15-36l-142-857q-3-16-18-25-8-5-18-5-6 0-13 3l-294 120-166-182q-10-12-27-12-7 0-12 2-11 4-17 13t-6 21v252l-264 108q-20 7-22 30-2 22 18 33l928 536q20 12 38-1z m-190-837l123 739-800-462 187-76 482 356-267-444z" horiz-adv-x="1000" />
<glyph glyph-name="window" unicode="&#xe808;" d="m900 750q42 0 71-30t29-70l0-600q0-42-29-71t-71-29l-800 0q-40 0-70 29t-30 71l0 600q0 40 30 70t70 30l800 0z m-670-94q-16 0-27-11t-11-25q0-16 11-27t27-11q38 0 38 38 0 16-11 26t-27 10z m-138-36q0-16 11-27t27-11q38 0 38 38 0 16-11 26t-27 10-27-11-11-25z m810-570l0 460-802 0 0-460 802 0z m0 540l0 60-602 0 0-60 602 0z" horiz-adv-x="1000" />
<glyph glyph-name="mobile" unicode="&#xe809;" d="m480 840q42 0 71-29t29-71l0-780q0-40-29-70t-71-30l-380 0q-40 0-70 30t-30 70l0 780q0 42 30 71t70 29l380 0z m-190-940q30 0 50 15t20 35q0 22-20 36t-50 14q-28 0-49-15t-21-35 21-35 49-15z m210 150l0 660-420 0 0-660 420 0z" horiz-adv-x="580" />
<glyph glyph-name="monitor" unicode="&#xe80a;" d="m900 790q42 0 71-30t29-70l0-550q0-42-29-77t-69-43l-218-44 86-38q50-28-20-28l-500 0q-98 0 32 52l36 14-220 44q-40 8-69 43t-29 77l0 550q0 40 30 70t70 30l800 0z m0-646l0 556-800 0 0-556 800 0z" horiz-adv-x="1000" />
<glyph glyph-name="login" unicode="&#xe80b;" d="m661 350q0-14-11-25l-303-304q-11-10-26-10t-25 10-10 25v161h-250q-15 0-25 11t-11 25v214q0 15 11 25t25 11h250v161q0 14 10 25t25 10 26-10l303-304q11-10 11-25z m196 196v-392q0-67-47-114t-114-47h-178q-7 0-13 5t-5 13q0 2-1 11t0 15 2 13 5 11 12 3h178q37 0 63 27t27 63v392q0 37-27 63t-63 27h-174t-6 0-6 2-5 3-4 5-1 8q0 2-1 11t0 15 2 13 5 11 12 3h178q67 0 114-47t47-114z" horiz-adv-x="857.1" />
<glyph glyph-name="popup" unicode="&#xe80c;" d="m700 750q42 0 71-29t29-71l0-400q0-40-29-70t-71-30l-400 0q-40 0-70 30t-30 70l0 402q0 40 29 69t71 29l400 0z m0-500l0 400-400 0 0-400 400 0z m-600 100l0-300 300 0 0-100-300 0q-40 0-70 30t-30 70l0 300 100 0z" horiz-adv-x="800" />
<glyph glyph-name="leaf" unicode="&#xe80d;" d="m236 646q182 106 506 66 168-22 196-50 4-6-2-10-76-40-130-109t-78-132-65-132-93-105q-138-96-382-4-66-76-114-176-12-24-47-7t-25 39q44 100 129 193t176 153 176 106 141 68l54 20q-14 0-41-1t-104-14-148-38-162-84-161-141q-22 242 174 358z" horiz-adv-x="940" />
<glyph glyph-name="picture" unicode="&#xe80e;" d="m856 518l-100 0-124 150-214-150-180 0q-52 0-90-39t-38-91l0-160-108 296q-10 38 22 52l680 248q36 10 50-24z m106-90q16 0 27-12t11-28l0-472q0-16-11-28t-27-12l-724 0q-16 0-27 12t-11 28l0 472q0 16 11 28t27 12l724 0z m-56-452l0 162-72 160-166-60-130-132-138 170-92-214 0-86 598 0z" horiz-adv-x="1000" />
<glyph glyph-name="bath5-1" unicode="&#xe80f;" d="m1000 341c0 46-37 82-82 82h-780v267c0 31 25 56 56 56h14c15 0 29-6 40-17l-3-2c-41-42-41-109 0-151l14-14c7-6 15-9 23-9 8 0 16 3 22 9l139 139c13 13 13 33 0 45l-14 14c-20 20-46 31-75 31-22 0-42-6-60-18-22 23-53 37-86 37h-14c-66 0-120-54-120-120v-267c-41-4-74-39-74-82 0-35 22-64 53-76v-105c0-93 65-170 153-188l-28-27c-12-13-12-33 0-45 7-6 15-9 23-9 8 0 16 3 22 9l69 68h416l69-68c6-6 14-9 22-9 8 0 17 3 23 9 12 12 12 32 0 45l-27 27c87 18 153 95 153 188v105c30 12 52 41 52 76z m-646 387c7 0 15-2 21-5l-92-92c-9 16-7 37 7 51l34 33c8 8 19 13 30 13z m-272-368h836c10 0 18-9 18-19 0-10-8-18-18-18h-836c-10 0-18 8-18 18 0 10 8 19 18 19z m802-200c0-71-58-128-128-128h-512c-70 0-128 57-128 128v98h768v-98z m-481 328c3-3 7-4 11-4 4 0 8 1 11 4 6 6 6 16 0 22l-16 16c-6 6-16 6-22 0-6-6-6-16 0-22l16-16z m46 16l16-16c3-3 7-4 11-4s8 1 11 4c6 6 6 16 0 22l-16 16c-6 6-16 6-22 0-6-6-6-16 0-22z m-55 68l-16 16c-6 6-16 6-22 0-6-6-6-16 0-22l16-16c3-3 7-4 11-4 4 0 8 1 11 4 6 6 6 16 0 22z m46 16c-6 6-16 6-22 0-6-6-6-16 0-22l16-16c3-3 7-4 11-4 4 0 8 1 11 4 6 6 6 16 0 22l-16 16z m-23 63c-6-6-6-16 0-22l16-16c3-3 7-4 11-4s8 1 11 4c6 6 6 16 0 22l-16 16c-6 6-16 6-22 0z m76-82c3-3 7-5 11-5 4 0 8 2 11 5 6 6 6 16 0 22l-16 15c-6 6-15 6-21 0-6-6-6-16 0-22l15-15z" horiz-adv-x="1000" />
<glyph glyph-name="profile" unicode="&#xe810;" d="m500 194c129 0 234 133 234 297s-105 297-234 297-234-134-234-297 105-297 234-297z m0 531c93 0 172-107 172-234s-79-235-172-235-172 108-172 235 79 234 172 234z m-436-584l-62-187c-4-10-2-20 4-29 6-8 15-13 25-13h938c10 0 19 5 25 13 6 9 8 19 4 29l-62 187c-3 10-11 18-21 20l-219 63c-7 2-15 1-22-2l-174-87-173 87c-7 3-15 4-23 2l-219-63c-10-2-18-10-21-20z m245 19l177-88c9-4 19-4 28 0l177 88 191-54 43-131h-850l43 131 191 54z" horiz-adv-x="1000" />
<glyph glyph-name="bath5" unicode="&#xe811;" d="m1000 341c0 46-37 82-82 82h-780v267c0 31 25 56 56 56h14c15 0 29-6 40-17l-3-2c-41-42-41-109 0-151l14-14c7-6 15-9 23-9 8 0 16 3 22 9l139 139c13 13 13 33 0 45l-14 14c-20 20-46 31-75 31-22 0-42-6-60-18-22 23-53 37-86 37h-14c-66 0-120-54-120-120v-267c-41-4-74-39-74-82 0-35 22-64 53-76v-105c0-93 65-170 153-188l-28-27c-12-13-12-33 0-45 7-6 15-9 23-9 8 0 16 3 22 9l69 68h416l69-68c6-6 14-9 22-9 8 0 17 3 23 9 12 12 12 32 0 45l-27 27c87 18 153 95 153 188v105c30 12 52 41 52 76z m-646 387c7 0 15-2 21-5l-92-92c-9 16-7 37 7 51l34 33c8 8 19 13 30 13z m-272-368h836c10 0 18-9 18-19 0-10-8-18-18-18h-836c-10 0-18 8-18 18 0 10 8 19 18 19z m802-200c0-71-58-128-128-128h-512c-70 0-128 57-128 128v98h768v-98z m-481 328c3-3 7-4 11-4 4 0 8 1 11 4 6 6 6 16 0 22l-16 16c-6 6-16 6-22 0-6-6-6-16 0-22l16-16z m46 16l16-16c3-3 7-4 11-4s8 1 11 4c6 6 6 16 0 22l-16 16c-6 6-16 6-22 0-6-6-6-16 0-22z m-55 68l-16 16c-6 6-16 6-22 0-6-6-6-16 0-22l16-16c3-3 7-4 11-4 4 0 8 1 11 4 6 6 6 16 0 22z m46 16c-6 6-16 6-22 0-6-6-6-16 0-22l16-16c3-3 7-4 11-4 4 0 8 1 11 4 6 6 6 16 0 22l-16 16z m-23 63c-6-6-6-16 0-22l16-16c3-3 7-4 11-4s8 1 11 4c6 6 6 16 0 22l-16 16c-6 6-16 6-22 0z m76-82c3-3 7-5 11-5 4 0 8 2 11 5 6 6 6 16 0 22l-16 15c-6 6-15 6-21 0-6-6-6-16 0-22l15-15z" horiz-adv-x="1000" />
<glyph glyph-name="comment-2" unicode="&#xe812;" d="m0 413q0 156 147 265t353 109 354-109 146-266-146-265-354-110q-47 0-96 8-29-35-89-78t-122-55l-9 0q-12 0-20 8t-8 20q0 6 2 12 0 1 13 21t18 29 13 30 13 36 4 32l0 2q-102 53-160 134t-59 176z m63 0q0-75 48-143t137-111q33-18 33-57l0-6q0-41-21-92 60 37 95 80 18 24 49 24 4 0 8-2 45-6 88-6 182 0 310 92t127 221-127 220-310 92-310-92-127-220z m93 0q0 89 102 154t242 64q16 0 16-15t-16-16q-125 0-219-57t-93-131q0-15-16-15t-16 15z" horiz-adv-x="1000" />
<glyph glyph-name="cancel" unicode="&#xe813;" d="m452 194q18-18 18-43t-18-43q-18-16-43-16t-43 16l-132 152-132-152q-18-16-43-16t-43 16q-16 18-16 43t16 43l138 156-138 158q-16 18-16 43t16 43q18 16 43 16t43-16l132-152 132 152q18 16 43 16t43-16q18-18 18-43t-18-43l-138-158z" horiz-adv-x="470" />
<glyph glyph-name="globe" unicode="&#xe814;" d="m0 366q0 201 142 342t342 142 343-142 142-342-142-343-343-142-342 142-142 343z m63-16q7-166 125-283 52 37 109 60-43 106-47 223l-187 0z m0 31l187 0q4 104 37 196-62 25-117 68-102-113-107-264z m128 287q51-39 108-62 43 101 117 176-131-22-225-114z m20-623q88-76 205-95-64 64-105 148-53-19-100-53z m70 305q4-111 45-213 69 22 143 26l0 187-188 0z m0 31l188 0 0 157q-78 3-153 29-31-88-35-186z m47 215q69-23 141-27l0 218-2 0q-90-76-139-191z m12-486q49-100 127-166l2 0 0 187q-69-4-129-21z m160-166l2 0q78 66 127 166-61 17-129 21l0-187z m0 219q74-4 143-26 41 102 45 213l-188 0 0-187z m0 218l188 0q-4 98-36 186-74-26-152-29l0-157z m0 188q72 4 141 27-49 115-139 191l-2 0 0-218z m53-619q117 19 205 95-47 34-100 53-41-84-105-148z m0 832q74-75 117-176 57 23 107 62-93 92-224 114z m119-655q57-23 109-60 117 117 125 283l-187 0q-4-117-47-223z m10 450q33-92 37-196l187 0q-6 151-107 264-55-43-117-68z" horiz-adv-x="969" />
<glyph glyph-name="skype-1" unicode="&#xe815;" d="m920 281q18-52 18-103 0-129-89-221-90-92-216-92-58 0-113 22-19-2-46-2-188 0-321 135-133 136-133 326 0 29 4 57-24 55-24 122 0 128 88 218 90 92 217 92 68 0 126-27 14 1 43 1 187 0 320-136 131-138 131-327 0-20-5-65z m-447-180q88 0 145 40t57 114q0 69-52 106-32 19-60 29-7 1-104 26-53 13-69 34-9 9-9 20 0 23 26 36t57 14q66 0 89-54 10-16 13-21t13-11 25-6q20 0 35 15t15 36q0 40-44 79-52 41-140 41-82 0-137-35t-55-103q0-42 23-72t58-44q40-17 92-29 30-6 64-15 50-18 50-56 0-30-29-46t-67-16q-56 0-79 31-16 31-21 36-14 43-51 43-22 0-36-14t-14-34q0-35 23-67t55-49q53-28 127-28z" horiz-adv-x="938" />
<glyph glyph-name="volume-off" unicode="&#xe816;" d="m460 727l0-754-234 234-226 0 0 286 226 0z" horiz-adv-x="460" />
<glyph glyph-name="vimeo" unicode="&#xe817;" d="m725 518q-26-153-137-285-110-132-200-193-53-26-93-1-39 24-61 69-13 23-62 193t-59 182q-9 16-41 1t-43-26l-29 37 33 39q38 41 91 82t94 49q55 11 81-54 16-37 31-135 3-18 14-63 36-152 57-152 32 0 103 135 32 62 4 102t-90 1q10 62 53 106 82 86 177 64 100-19 77-151z" horiz-adv-x="729" />
<glyph glyph-name="pinterest" unicode="&#xe818;" d="m331 754q129 0 212-79t82-186q0-139-70-229t-180-90q-36 0-69 18t-45 41q-26-107-32-127-20-73-84-153-7-7-10 3-15 106 1 176l59 254q-15 28-15 72 0 51 26 86t64 34q30 0 46-19t17-50q0-18-7-45t-18-63-17-57q-8-36 14-63t60-27q64 0 105 73t41 175q0 79-50 128t-142 49q-103 0-166-65t-63-157q0-54 31-91 10-13 7-25-2-3-4-14t-3-15-5-13-8-8-13 1q-95 39-95 176 0 110 89 200t242 90z" horiz-adv-x="625" />
<glyph glyph-name="check" unicode="&#xe819;" d="m249 0q-34 0-56 28l-180 236q-16 24-12 52t26 46 51 14 47-28l118-154 296 474q16 24 43 30t53-8q24-16 30-43t-8-53l-350-560q-20-32-56-32z" horiz-adv-x="667" />
<glyph glyph-name="building" unicode="&#xe81a;" d="m214 118v-36q0-7-5-12t-13-6h-35q-7 0-13 6t-5 12v36q0 7 5 12t13 6h35q8 0 13-6t5-12z m0 143v-36q0-7-5-13t-13-5h-35q-7 0-13 5t-5 13v36q0 7 5 12t13 6h35q8 0 13-6t5-12z m143 0v-36q0-7-5-13t-13-5h-35q-8 0-13 5t-5 13v36q0 7 5 12t13 6h35q8 0 13-6t5-12z m-143 143v-36q0-7-5-13t-13-5h-35q-7 0-13 5t-5 13v36q0 7 5 12t13 5h35q8 0 13-5t5-12z m429-286v-36q0-7-5-12t-13-6h-36q-7 0-12 6t-6 12v36q0 7 6 12t12 6h36q7 0 13-6t5-12z m-143 143v-36q0-7-5-13t-13-5h-36q-7 0-12 5t-5 13v36q0 7 5 12t12 6h36q7 0 13-6t5-12z m-143 143v-36q0-7-5-13t-13-5h-35q-8 0-13 5t-5 13v36q0 7 5 12t13 5h35q8 0 13-5t5-12z m-143 142v-35q0-8-5-13t-13-5h-35q-7 0-13 5t-5 13v35q0 8 5 13t13 5h35q8 0 13-5t5-13z m429-285v-36q0-7-5-13t-13-5h-36q-7 0-12 5t-6 13v36q0 7 6 12t12 6h36q7 0 13-6t5-12z m-143 143v-36q0-7-5-13t-13-5h-36q-7 0-12 5t-5 13v36q0 7 5 12t12 5h36q7 0 13-5t5-12z m-143 142v-35q0-8-5-13t-13-5h-35q-8 0-13 5t-5 13v35q0 8 5 13t13 5h35q8 0 13-5t5-13z m-143 143v-35q0-8-5-13t-13-5h-35q-7 0-13 5t-5 13v35q0 8 5 13t13 5h35q8 0 13-5t5-13z m429-285v-36q0-7-5-13t-13-5h-36q-7 0-12 5t-6 13v36q0 7 6 12t12 5h36q7 0 13-5t5-12z m-143 142v-35q0-8-5-13t-13-5h-36q-7 0-12 5t-5 13v35q0 8 5 13t12 5h36q7 0 13-5t5-13z m-143 143v-35q0-8-5-13t-13-5h-35q-8 0-13 5t-5 13v35q0 8 5 13t13 5h35q8 0 13-5t5-13z m286-143v-35q0-8-5-13t-13-5h-36q-7 0-12 5t-6 13v35q0 8 6 13t12 5h36q7 0 13-5t5-13z m-143 143v-35q0-8-5-13t-13-5h-36q-7 0-12 5t-5 13v35q0 8 5 13t12 5h36q7 0 13-5t5-13z m143 0v-35q0-8-5-13t-13-5h-36q-7 0-12 5t-6 13v35q0 8 6 13t12 5h36q7 0 13-5t5-13z m-143-768h214v858h-643v-858h215v125q0 8 5 13t13 5h178q7 0 13-5t5-13v-125z m286 893v-928q0-15-11-25t-25-11h-714q-15 0-25 11t-11 25v928q0 15 11 25t25 11h714q15 0 25-11t11-25z" horiz-adv-x="785.7" />
<glyph glyph-name="plus55" unicode="&#xe81b;" d="m1000 400v-100h-450v-450h-100v450h-450v100h450v450h100v-450h450z" horiz-adv-x="1000" />
<glyph glyph-name="mail" unicode="&#xe81c;" d="m929 11v428q-18-20-39-37-149-114-238-188-28-24-46-38t-48-27-57-13h-2q-26 0-57 13t-48 27-46 38q-88 74-238 188-21 17-39 37v-428q0-8 6-13t12-5h822q7 0 12 5t6 13z m0 586v14t-1 7-1 7-3 5-5 4-8 2h-822q-7 0-12-6t-6-12q0-94 82-159 108-85 224-177 4-2 20-16t25-21 25-18 28-15 24-5h2q11 0 24 5t28 15 25 18 25 21 20 16q116 92 224 177 30 24 56 65t26 73z m71 21v-607q0-37-26-63t-63-27h-822q-36 0-63 27t-26 63v607q0 37 26 63t63 26h822q37 0 63-26t26-63z" horiz-adv-x="1000" />
<glyph glyph-name="skype" unicode="&#xe81d;" d="m655 257q0 28-11 51t-27 38-41 27-46 19-49 13l-58 14q-17 4-25 6t-19 6-17 9-9 12-4 16q0 43 80 43 24 0 43-6t30-16 21-19 23-16 27-7q26 0 42 18t16 43q0 31-32 55t-79 38-101 13q-38 0-74-9t-67-26-49-48-19-72q0-34 10-60t32-42 44-27 58-18l81-20q51-12 63-20 18-11 18-34 0-21-23-36t-58-14q-29 0-51 9t-37 22-25 25-26 21-30 9q-28 0-42-17t-14-41q0-52 68-88t162-37q41 0 78 10t69 30 49 52 19 74z m202-121q0-89-63-152t-151-63q-73 0-131 45-43-9-83-9-80 0-153 31t-126 84-83 125-31 153q0 41 9 84-45 58-45 130 0 89 63 152t151 63q73 0 131-45 43 9 84 9 79 0 152-31t126-84 83-125 31-153q0-41-9-84 45-58 45-130z" horiz-adv-x="857.1" />
<glyph glyph-name="gplus" unicode="&#xe81e;" d="m410 406q0-20 18-40t43-37 51-41 43-59 18-79q0-50-27-96-40-68-118-101t-166-32q-74 0-138 24t-95 76q-21 34-21 73 0 46 25 84t66 64q73 46 225 56-18 24-26 41t-9 41q0 20 12 48-26-3-38-3-83 0-139 54t-57 137q0 45 20 88t55 73q43 37 102 55t122 18h233l-77-49h-73q41-35 62-74t21-90q0-40-13-72t-33-52-39-36-33-34-14-37z m-81 53q21 0 43 10t37 24q30 32 30 89 0 32-10 69t-27 73-47 57-65 23q-24 0-46-11t-37-29q-26-33-26-89 0-26 5-55t18-57 29-52 42-37 54-15z m1-487q32 0 62 7t55 22 41 41 15 61q0 14-4 27t-8 24-15 23-16 19-22 20-20 16-23 16-21 15q-8 1-26 1-30 0-59-4t-60-14-54-25-38-42-15-59q0-39 19-69t51-46 67-25 71-8z m452 489h119v-60h-119v-122h-59v122h-118v60h118v121h59v-121z" horiz-adv-x="928.6" />
<glyph glyph-name="instagramm" unicode="&#xe81f;" d="m760 54v362h-75q11-35 11-73 0-71-36-130t-97-94-134-35q-110 0-188 76t-78 183q0 38 11 73h-79v-362q0-14 10-24t25-10h596q14 0 24 10t10 24z m-158 298q0 69-51 118t-122 49q-71 0-121-49t-51-118 51-118 121-49q72 0 122 49t51 118z m158 201v92q0 15-11 27t-27 11h-98q-16 0-27-11t-11-27v-92q0-17 11-28t27-11h98q16 0 27 11t11 28z m97 116v-638q0-45-32-77t-78-33h-637q-45 0-78 33t-32 77v638q0 45 32 77t78 33h637q45 0 78-33t32-77z" horiz-adv-x="857.1" />
<glyph glyph-name="linkedin" unicode="&#xe820;" d="m195 501v-553h-184v553h184z m12 171q0-41-29-68t-75-27h-1q-46 0-74 27t-28 68q0 41 29 68t75 27 74-27 29-68z m650-407v-317h-183v296q0 59-23 92t-71 33q-35 0-58-19t-36-48q-6-17-6-45v-309h-184q1 223 1 361t0 165l-1 27h184v-80h-1q11 18 23 31t31 29 49 24 64 9q95 0 153-63t58-186z" horiz-adv-x="857.1" />
<glyph glyph-name="home" unicode="&#xe821;" d="m786 296v-267q0-15-11-26t-25-10h-214v214h-143v-214h-214q-15 0-25 10t-11 26v267q0 1 0 2t0 2l321 264 321-264q1-1 1-4z m124 39l-34-41q-5-5-12-6h-2q-7 0-12 3l-386 322-386-322q-7-4-13-4-7 2-12 7l-35 41q-4 5-3 13t6 12l401 334q18 15 42 15t43-15l136-114v109q0 8 5 13t13 5h107q8 0 13-5t5-13v-227l122-102q5-5 6-12t-4-13z" horiz-adv-x="928.6" />
<glyph glyph-name="twitter" unicode="&#xe822;" d="m904 622q-37-54-90-93 0-8 0-23 0-73-21-145t-64-139-103-117-144-82-181-30q-151 0-276 81 19-3 43-3 126 0 224 77-59 2-105 36t-64 89q19-2 34-2 24 0 48 6-63 13-104 62t-41 115v2q38-21 82-23-37 25-59 64t-22 86q0 49 25 91 68-83 164-133t208-55q-5 21-5 41 0 75 53 127t127 53q79 0 132-57 61 12 114 44-20-64-79-100 52 6 104 28z" horiz-adv-x="928.6" />
<glyph glyph-name="facebook" unicode="&#xe823;" d="m535 843v-147h-87q-48 0-65-20t-17-60v-106h164l-22-165h-142v-424h-171v424h-142v165h142v122q0 104 58 161t155 57q82 0 127-7z" horiz-adv-x="571.4" />
<glyph glyph-name="search" unicode="&#xe824;" d="m772 78q30-34 6-62l-46-46q-36-32-68 0l-190 190q-74-42-156-42-128 0-223 95t-95 223 90 219 218 91 224-95 96-223q0-88-46-162z m-678 358q0-88 68-156t156-68 151 63 63 153q0 88-68 155t-156 67-151-63-63-151z" horiz-adv-x="789" />
<glyph glyph-name="arrows-ccw" unicode="&#xe825;" d="m186 140l116 116 0-292-276 16 88 86q-116 122-114 290t120 288q100 100 240 116l4-102q-100-16-172-88-88-88-90-213t84-217z m332 598l276-16-88-86q116-122 114-290t-120-288q-96-98-240-118l-2 104q98 16 170 88 88 88 90 213t-84 217l-114-116z" horiz-adv-x="820" />
<glyph glyph-name="desktop" unicode="&#xe826;" d="m0 100l0 625q0 39 27 66t67 28l812 0q39 0 67-28t27-66l0-625q0-39-27-66t-67-28l-312 0 0-37 195-25q23-6 23-32 0-13-8-22t-23-9l-562 0q-14 0-23 9t-8 22q0 26 23 32l195 25 0 37-312 0q-39 0-67 28t-27 66z m63 0q0-14 8-22t23-9l812 0q14 0 23 9t8 22l0 625q0 14-8 22t-23 9l-812 0q-14 0-23-9t-8-22l0-625z m62 125l0 437q0 14 9 23t22 9l688 0q13 0 22-9t9-23l0-437q0-14-9-22t-22-9l-688 0q-13 0-22 9t-9 22z m31 0l688 0 0 437-688 0 0-437z" horiz-adv-x="1000" />
<glyph glyph-name="edit" unicode="&#xe827;" d="m496 189l64 65-85 85-64-65v-31h53v-54h32z m245 402q-9 9-18 0l-196-196q-9-9 0-18t18 0l196 196q9 9 0 18z m45-331v-106q0-67-47-114t-114-47h-464q-67 0-114 47t-47 114v464q0 66 47 113t114 48h464q35 0 65-14 9-4 10-13 2-10-5-16l-27-28q-8-8-18-4-13 3-25 3h-464q-37 0-63-26t-27-63v-464q0-37 27-63t63-27h464q37 0 63 27t26 63v70q0 7 5 12l36 36q8 8 20 4t11-16z m-54 411l161-160-375-375h-161v160z m248-73l-51-52-161 161 51 51q16 16 38 16t38-16l85-84q16-16 16-38t-16-38z" horiz-adv-x="1000" />
<glyph glyph-name="globe-1" unicode="&#xe828;" d="m429 779q116 0 215-58t156-156 57-215-57-215-156-156-215-58-216 58-155 156-58 215 58 215 155 156 216 58z m152-291q-1-1-5-5t-7-6q1 0 2 3t3 6 2 4q3 4 12 8 8 4 29 7 19 5 29-6-1 1 5 7t8 7q2 1 8 2t9 5l1 12q-7-1-10 4t-3 12q0-2-4-5 0 4-2 5t-7-1-5-1q-5 2-8 5t-5 9-2 8q-1 3-5 6t-5 6q-1 1-2 3t-2 4-2 3-3 1-4-3-4-5-2-3q-2 1-4 1t-2-1-3-2-3-2q-1-1-4-1t-5-1q8 3-1 6-5 2-9 1 5 3 5 7t-5 8h3q-1 2-5 5t-10 4-7 4q-5 3-19 5t-18 0q-3-3-3-5t2-8 2-7q1-4-3-7t-3-7q0-4 7-9t6-12q-2-4-9-9t-9-6q-3-5-1-11t6-9q1-1 1-2t-2-3-3-2-4-2l-1-1q-7-3-12 3t-7 15q-4 14-9 17-13 4-17-1-2 7-22 15-14 5-33 2 4 0 0 8-4 9-10 7 1 3 2 10t0 7q2 7 7 13 1 1 4 5t5 7 1 4q19-3 28 6 2 2 6 9t6 10q5 3 8 3t8-3 8-3q8-1 8 6t-4 11q7 0 2 10-3 4-5 5-6 2-15-3-4-2 2-4-1 0-6-6t-9-10-9 3q0 0-3 7t-5 8q-5 0-9-9 1 5-6 9t-14 4q11 7-4 15-4 3-12 3t-11-2q-2-4-3-7t3-4 6-3 6-2 5-2q8-6 5-8-1 0-5-2t-6-2-4-3q-2-2 0-7t-1-8q-3 3-5 10t-4 9q4-5-14-4l-5 1q-3 0-9-1t-12-1-7 5q-3 4 0 11 0 2 2 1-2 2-6 5t-6 5q-25-8-52-23 3 0 6 1 3 1 8 3t5 4q19 7 24 3l3 3q7-9 11-14-4 3-17 1-11-4-12-7 4-7 2-10-2 2-6 6t-8 6-8 3q-9 0-13-1-81-45-131-124 4-4 7-4 2-1 3-5t1-6 6 1q5-4 2-10 1 0 25-15 10-10 11-12 2-6-5-10-1 1-5 5t-5 2q-2-3 0-10t6-7q-4 0-5-9t-2-20 0-13l1-1q-2-6 3-19t12-11q-7-1 11-24 3-4 4-5 2-1 7-4t9-6 5-5q2-3 6-13t8-13q-2-3 5-11t6-13q-1 0-2-1t-1 0q2-4 9-8t8-7q1-2 1-6t2-6 4-1q2 11-13 34-8 14-9 17-2 2-4 8t-2 8q1 0 3 0t5-2 4-3 1-1q-1-4 1-10t7-10 10-11 6-7q4-4 8-11t0-8q5 0 11-5t10-11q3-5 4-15t3-13q1-4 5-8t7-5l9-5t7-3q3-2 10-6t12-7q6-2 9-2t8 1 8 2q8 1 16-8t12-12q20-10 30-6-1 0 1-4t4-9 5-8 3-5q3-3 10-8t10-8q4 2 4 5-1-5 4-11t10-6q8 2 8 18-17-9-27 10 0 0-2 3t-2 5-1 4 0 5 2 1q5 0 6 2t-1 7-2 8q-1 4-6 11t-7 8q-3-5-9-4t-9 5q0-1-1-3t-1-4q-7 0-8 0 1 2 1 10t2 13q1 2 3 6t5 9 2 7-3 5-9 1q-11 0-15-11-1-2-2-6t-2-6-5-4q-4-2-14-1t-13 3q-8 4-13 16t-5 20q0 6 1 15t2 14-3 14q2 1 5 5t5 6q2 1 3 1t2 0 3 1 1 3q0 1-2 2-2 1-2 1 4-1 16 1t15-1q9-6 12 1 0 1-1 6t0 7q3-15 16-5 2-1 9-3t9-2q2-1 4-3t3-3 3 0 5 4q5-8 7-13 6-23 10-25 4-2 6-1t3 5 0 8-1 7l-1 4v11l0 4q-8 2-10 7t0 10 9 10q0 1 4 2t9 4 7 4q12 11 8 20 4 0 6 5 0 0-2 2t-5 2-2 2q5 2 1 8 3 2 4 7t4 5q5-7 12-1 4 5 1 9 2 4 11 6t10 5q4-1 5 1t0 7 2 7q2 2 8 5t8 2l9 7q2 2 0 2 10-1 18 6 5 6-4 11 2 3-2 5t-8 3q2 1 7 1t5 1q9 5-4 9-9 2-24-7z m-90-490q114 21 195 106-1 2-7 2t-7 2q-10 4-13 5 1 4-1 7t-5 5-7 5-6 4q-1 1-4 3t-4 3-4 2-5 2-5-1l-2-1q-2 0-3-1t-3-2-2-1 0-2q-12 10-20 13-3 0-7 3t-5 4-6 0-6-4q-3-2-4-8t-1-7q-4 3 0 10t1 10q-1 3-6 2t-6-2-7-5-5-3-4-3-5-5q-2-2-4-6t-2-7q-1 3-7 4t-5 3q1-5 2-19t3-22q4-17-7-26-15-14-16-23-2-12 7-14 0-4-5-12t-4-12q0-3 2-9z" horiz-adv-x="857.1" />
<glyph glyph-name="file-image" unicode="&#xe829;" d="m819 638q16-16 27-42t11-50v-642q0-23-15-38t-38-16h-750q-23 0-38 16t-16 38v892q0 23 16 38t38 16h500q22 0 49-11t42-27z m-248 136v-210h210q-5 16-12 23l-175 175q-6 7-23 12z m215-853v572h-232q-23 0-38 15t-16 38v233h-429v-858h715z m-72 250v-178h-571v107l107 107 71-71 215 214z m-464 108q-45 0-76 31t-31 76 31 76 76 31 76-31 31-76-31-76-76-31z" horiz-adv-x="857.1" />
<glyph glyph-name="leaf-1" unicode="&#xe82a;" d="m714 457q0 15-10 25t-25 11q-96 0-178-28t-145-75-131-122q-11-12-11-25 0-15 11-25t25-11q13 0 25 11 15 13 41 39t38 37q76 69 150 98t175 29q14 0 25 11t10 25z m286 111q0-53-11-108-26-125-103-214t-200-149q-119-61-244-61-83 0-160 27-8 2-49 23t-53 21q-9 0-22-18t-25-39-30-39-33-18q-17 0-29 6t-17 13-15 24q-1 2-3 6t-3 6-2 5-1 7q0 20 17 41t38 37 38 31 18 27q0 2-8 21t-9 25q-5 28-5 58 0 64 24 123t66 103 96 77 113 53q31 10 81 15t100 5 100 3 91 13 64 32l16 16t17 16 15 11 20 9 24 3q22 0 40-26t26-63 14-69 4-53z" horiz-adv-x="1000" />
<glyph glyph-name="ok" unicode="&#xe82d;" d="m932 534q0-22-15-38l-404-404-76-76q-16-15-38-15t-38 15l-76 76-202 202q-15 16-15 38t15 38l76 76q16 16 38 16t38-16l164-165 366 367q16 16 38 16t38-16l76-76q15-16 15-38z" horiz-adv-x="1000" />
<glyph glyph-name="cancel-1" unicode="&#xe82f;" d="m724 112q0-22-15-38l-76-76q-16-15-38-15t-38 15l-164 165-164-165q-16-15-38-15t-38 15l-76 76q-16 16-16 38t16 38l164 164-164 164q-16 16-16 38t16 38l76 76q16 16 38 16t38-16l164-164 164 164q16 16 38 16t38-16l76-76q15-15 15-38t-15-38l-164-164 164-164q15-15 15-38z" horiz-adv-x="785.7" />
<glyph glyph-name="shopping" unicode="&#xe830;" d="m275 44c45 0 80-36 80-81s-35-80-80-80-80 36-80 80c0 45 36 81 80 81z m262 0c44 0 80-36 80-81s-36-80-80-80-80 36-80 80c0 45 36 81 80 81z m459 755c-9 23-36 34-59 25l-168-68c-4-1-7-4-10-6-12-6-22-17-25-31l-24-121c-3 1-6 1-10 1h-611c-48 0-87-41-87-91v-10l112-327c14-49 45-81 89-81h428c41 0 76 31 84 72 2 3 3 6 4 10l115 512 137 55c23 10 35 36 25 60z m-332-434l-38-181v-2h-411l-7 9-110 317h594l-28-143z" horiz-adv-x="1000" />
<glyph glyph-name="info-1" unicode="&#xe831;" d="m357 100v-71q0-15-10-25t-26-11h-285q-15 0-25 11t-11 25v71q0 15 11 25t25 11h35v214h-35q-15 0-25 11t-11 25v71q0 15 11 25t25 11h214q15 0 25-11t11-25v-321h35q15 0 26-11t10-25z m-71 643v-107q0-15-11-25t-25-11h-143q-14 0-25 11t-11 25v107q0 14 11 25t25 11h143q15 0 25-11t11-25z" horiz-adv-x="357.1" />
<glyph glyph-name="tint" unicode="&#xe832;" d="m286 207q0 20-11 39-1 0-9 12t-14 21-14 25-12 28q-2 9-12 9t-11-9q-4-13-12-28t-14-25-14-21-9-12q-11-19-11-39 0-29 21-50t50-21 51 21 21 50z m285 72q0-119-83-202t-202-84-202 84-84 202q0 81 45 153 4 5 35 51t56 84 56 99 46 112q5 17 19 27t29 9 28-9 19-27q16-51 46-112t56-99 56-85 35-50q45-71 45-154z" horiz-adv-x="571.4" />
<glyph glyph-name="feather" unicode="&#xe833;" d="m60-138q-6-20-26-8-18 8-16 34 4 100 50 226-100 154-52 316 10-32 32-78t44-80 32-30q8 4 0 83t-11 166 25 157q22 44 80 94t104 70q-24-46-33-94t-4-78 21-32q12 0 84 120t106 122q46 4 114-29t82-65q12-24 0-79t-40-83q-44-44-146-62t-114-24q-16-10 12-34 54-48 176-20-56-80-136-114t-132-38-54-10q-4-24 49-54t101-14q-30-56-63-84t-54-35-76-11-85-8z" horiz-adv-x="698" />
<glyph glyph-name="comment" unicode="&#xe834;" d="m1000 350q0-97-67-179t-182-130-251-48q-39 0-81 4-110-97-257-135-27-8-63-12-10-1-17 5t-10 16v1q-2 2 0 6t1 6 2 5l4 5t4 5 4 5q4 5 17 19t20 22 17 22 18 28 15 33 15 42q-88 50-138 123t-51 157q0 73 40 139t106 114 160 76 194 28q136 0 251-48t182-130 67-179z" horiz-adv-x="1000" />
<glyph glyph-name="cog" unicode="&#xe835;" d="m0 307l0 86q0 21 15 39t36 22l96 19q5 20 15 41l-53 80q-13 20-10 42t18 38l59 59q19 19 45 19 19 0 35-11l80-53q21 10 41 16l20 95q3 22 21 36t39 15l86 0q21 0 39-15t22-36l19-95q20-6 41-16l80 53q16 11 35 11 26 0 45-19l59-59q17-15 19-38t-11-42l-53-80q10-22 16-41l95-20q22-3 36-21t15-39l0-86q0-22-15-39t-36-22l-95-19q-6-20-16-41l53-80q13-20 11-42t-19-38l-59-59q-19-19-45-19-19 0-35 11l-80 53q-21-10-41-16l-19-95q-4-22-22-36t-39-15l-86 0q-21 0-39 14t-21 37l-20 95q-20 6-41 16l-80-53q-16-11-35-11-26 0-45 19l-59 59q-15 15-18 38t10 42l53 80q-10 21-15 41l-96 19q-22 4-36 22t-15 39z m63 0l95-19q35-6 47-40 6-17 14-35 15-31-4-60l-55-82 61-61 82 55q15 10 33 10 16 0 27-6 18-8 35-14 34-12 40-47l19-96 86 0 20 96q5 35 39 47 17 6 35 14 11 6 27 6 18 0 33-10l82-55 61 61-55 82q-19 29-4 60 8 18 14 35 12 34 47 40l95 19 0 86-95 20q-35 5-47 39-6 17-14 35-15 31 4 60l55 82-61 61-82-55q-15-10-33-10-16 0-27 6-18 8-35 14-34 12-39 47l-20 95-86 0-19-95q-6-35-40-47-17-6-35-14-11-6-27-6-18 0-33 10l-82 55-61-61 55-82q19-29 4-60-8-18-14-35-12-34-47-39l-95-20 0-86z m218 43q0 90 65 154t154 65 154-65 65-154-65-154-154-65-154 65-65 154z m28 0q0-80 55-136t136-55 136 55 55 136-55 136-136 55-136-55-55-136z m66 0q0 53 36 89t89 36 89-37 36-89-36-88-89-36-89 36-36 89z m31 0q0-39 28-66t66-28 66 28 28 66-28 66-66 28-66-28-28-66z" horiz-adv-x="1000" />
<glyph glyph-name="doc" unicode="&#xe837;" d="m0-25l0 625q0 39 27 66t67 28l31 0 0 62q0 39 27 67t67 27l687 0q39 0 67-27t27-67l0-781q0-53-36-89t-89-36l-750 0q-53 0-89 36t-36 89z m63 0q0-25 18-44t44-19l750 0q25 0 44 19t18 44l0 781q0 14-8 23t-23 8l-687 0q-14 0-23-8t-8-23l0-750q0-13-9-22t-23-9-22 9-9 22l0 625-31 0q-14 0-23-9t-8-22l0-625z m187 16q0 15 16 15l250 0q15 0 15-15t-15-16l-250 0q-16 0-16 16z m0 93q0 16 16 16l250 0q15 0 15-16t-15-15l-250 0q-16 0-16 15z m0 94q0 16 16 16l250 0q15 0 15-16 0-6-5-11t-10-4l-250 0q-16 0-16 15z m0 94q0 16 16 16l593 0q16 0 16-16t-16-16l-593 0q-16 0-16 16z m0 94q0 15 16 15l593 0q16 0 16-15t-16-16l-593 0q-16 0-16 16z m0 109l0 219q0 13 9 22t22 9l219 0q14 0 22-9t9-22l0-219q0-14-9-22t-22-9l-219 0q-13 0-22 9t-9 22z m63 31l156 0 0 156-156 0 0-156z m281-515q0 15 15 15l250 0q16 0 16-15t-16-16l-250 0q-15 0-15 16z m0 93q0 16 15 16l250 0q16 0 16-16t-16-15l-250 0q-15 0-15 15z m0 94q0 16 15 16l250 0q16 0 16-16 0-6-5-11t-11-5l-250 0q-15 0-15 16z m0 281q0 16 15 16l250 0q16 0 16-16t-16-15l-250 0q-15 0-15 15z m0 94q0 16 15 16l250 0q16 0 16-16t-16-16l-250 0q-15 0-15 16z m0 94q0 15 15 15l250 0q16 0 16-15t-16-16l-250 0q-15 0-15 16z" horiz-adv-x="1000" />
<glyph glyph-name="location" unicode="&#xe83b;" d="m0 475q0 156 109 266t266 109 266-109 109-266q0-78-28-160t-85-166-101-141-110-133q-20-25-49-25l-4 0q-29 0-49 25-66 77-110 133t-101 141-85 166-28 160z m63 0q0-72 28-150t85-161 95-128 100-120l2 0q2-2 2-4l4 4q62 73 100 120t94 128 86 161 29 150q0 129-92 221t-221 91-221-91-91-221z m125 8q0 78 54 133t133 54 133-54 55-133-55-133-133-55-133 55-54 133z m31 0q0-65 46-111t110-45 110 45 46 111-46 110-110 46-110-46-46-110z" horiz-adv-x="750" />
<glyph glyph-name="chat-empty" unicode="&#xe83e;" d="m393 636q-85 0-160-29t-118-79-44-107q0-45 30-88t83-73l54-32-19-46q19 11 34 21l25 18 30-6q43-8 85-8 85 0 159 29t118 79 44 106-44 107-118 79-159 29z m0 71q106 0 197-38t143-104 53-144-53-143-143-104-197-38q-48 0-98 9-70-49-155-72-21-5-48-9h-2q-6 0-12 5t-6 12q-1 1-1 3t1 4 1 3l1 3t2 3 2 3 3 3 2 2q3 3 13 14t15 16 12 17 14 21 11 25q-69 40-108 98t-40 125q0 78 53 144t143 104 197 38z m459-652q5-14 11-25t14-21 13-16 14-17 13-14q0 0 2-2t3-3 2-3 2-3l1-3t1-3 1-4-1-3q-2-8-7-13t-13-4q-27 4-48 9-85 23-155 72-50-9-98-9-151 0-263 74 32-3 49-3 90 0 172 25t148 72q69 52 107 119t37 141q0 43-13 85 72-39 114-99t42-128q0-67-40-126t-108-98z" horiz-adv-x="1000" />
<glyph glyph-name="building-filled" unicode="&#xe83f;" d="m750 850q15 0 25-11t11-25v-928q0-15-11-25t-25-11h-714q-15 0-25 11t-11 25v928q0 15 11 25t25 11h714z m-464-161v-35q0-8 5-13t13-5h35q8 0 13 5t5 13v35q0 8-5 13t-13 5h-35q-8 0-13-5t-5-13z m0-143v-35q0-8 5-13t13-5h35q8 0 13 5t5 13v35q0 8-5 13t-13 5h-35q-8 0-13-5t-5-13z m0-143v-35q0-8 5-13t13-5h35q8 0 13 5t5 13v35q0 8-5 13t-13 5h-35q-8 0-13-5t-5-13z m0-142v-36q0-8 5-13t13-5h35q8 0 13 5t5 13v36q0 7-5 12t-13 5h-35q-8 0-13-5t-5-12z m-72-179v36q0 8-5 13t-13 5h-35q-8 0-13-5t-5-13v-36q0-8 5-13t13-5h35q8 0 13 5t5 13z m0 143v36q0 7-5 12t-13 5h-35q-8 0-13-5t-5-12v-36q0-8 5-13t13-5h35q8 0 13 5t5 13z m0 143v35q0 8-5 13t-13 5h-35q-8 0-13-5t-5-13v-35q0-8 5-13t13-5h35q8 0 13 5t5 13z m0 143v35q0 8-5 13t-13 5h-35q-8 0-13-5t-5-13v-35q0-8 5-13t13-5h35q8 0 13 5t5 13z m0 142v36q0 8-5 13t-13 5h-35q-8 0-13-5t-5-13v-36q0-7 5-12t13-5h35q8 0 13 5t5 12z m286-714v107q0 8-5 13t-13 5h-178q-8 0-13-5t-5-13v-107q0-8 5-13t13-5h178q8 0 13 5t5 13z m0 286v36q0 7-5 12t-13 5h-36q-7 0-12-5t-5-12v-36q0-8 5-13t12-5h36q8 0 13 5t5 13z m0 143v35q0 8-5 13t-13 5h-36q-7 0-12-5t-5-13v-35q0-8 5-13t12-5h36q8 0 13 5t5 13z m0 143v35q0 8-5 13t-13 5h-36q-7 0-12-5t-5-13v-35q0-8 5-13t12-5h36q8 0 13 5t5 13z m0 142v36q0 8-5 13t-13 5h-36q-7 0-12-5t-5-13v-36q0-7 5-12t12-5h36q8 0 13 5t5 12z m143-571v36q0 8-5 13t-13 5h-36q-8 0-13-5t-5-13v-36q0-8 5-13t13-5h36q8 0 13 5t5 13z m0 143v36q0 7-5 12t-13 5h-36q-8 0-13-5t-5-12v-36q0-8 5-13t13-5h36q8 0 13 5t5 13z m0 143v35q0 8-5 13t-13 5h-36q-8 0-13-5t-5-13v-35q0-8 5-13t13-5h36q8 0 13 5t5 13z m0 143v35q0 8-5 13t-13 5h-36q-8 0-13-5t-5-13v-35q0-8 5-13t13-5h36q8 0 13 5t5 13z m0 142v36q0 8-5 13t-13 5h-36q-8 0-13-5t-5-13v-36q0-7 5-12t13-5h36q8 0 13 5t5 12z" horiz-adv-x="857.1" />
<glyph glyph-name="lifebuoy" unicode="&#xe841;" d="m500 850q102 0 194-40t160-106 106-160 40-194-40-194-106-160-160-106-194-40-194 40-160 106-106 160-40 194 40 194 106 160 160 106 194 40z m0-71q-106 0-201-51l108-108q46 16 93 16t93-16l108 108q-95 51-201 51z m-378-630l108 108q-16 46-16 93t16 93l-108 108q-51-95-51-201t51-201z m378-228q106 0 201 51l-108 108q-46-16-93-16t-93 16l-108-108q95-51 201-51z m0 215q89 0 152 63t62 151-62 152-152 62-151-62-63-152 63-151 151-63z m270 121l108-108q51 95 51 201t-51 201l-108-108q16-46 16-93t-16-93z" horiz-adv-x="1000" />
<glyph glyph-name="plus" unicode="&#xe843;" d="m550 400q30 0 30-50t-30-50l-210 0 0-210q0-30-50-30t-50 30l0 210-210 0q-30 0-30 50t30 50l210 0 0 210q0 30 50 30t50-30l0-210 210 0z" horiz-adv-x="580" />
<glyph glyph-name="minus" unicode="&#xe844;" d="m550 400q30 0 30-50t-30-50l-520 0q-30 0-30 50t30 50l520 0z" horiz-adv-x="580" />
<glyph glyph-name="play" unicode="&#xe845;" d="m772 333l-741-412q-13-7-22-2t-9 20v822q0 14 9 20t22-2l741-412q13-7 13-17t-13-17z" horiz-adv-x="785.7" />
<glyph glyph-name="pause" unicode="&#xe846;" d="m857 743v-786q0-14-10-25t-26-11h-285q-15 0-25 11t-11 25v786q0 14 11 25t25 11h285q15 0 26-11t10-25z m-500 0v-786q0-14-10-25t-26-11h-285q-15 0-25 11t-11 25v786q0 14 11 25t25 11h285q15 0 26-11t10-25z" horiz-adv-x="857.1" />
<glyph glyph-name="stop" unicode="&#xe847;" d="m857 743v-786q0-14-10-25t-26-11h-785q-15 0-25 11t-11 25v786q0 14 11 25t25 11h785q15 0 26-11t10-25z" horiz-adv-x="857.1" />
<glyph glyph-name="to-end" unicode="&#xe848;" d="m25-71q-10-11-18-8t-7 18v822q0 14 7 18t18-8l396-396q5-4 8-11v379q0 14 10 25t25 11h72q14 0 25-11t10-25v-786q0-14-10-25t-25-11h-72q-14 0-25 11t-10 25v379q-3-6-8-11z" horiz-adv-x="571.4" />
<glyph glyph-name="to-end-alt" unicode="&#xe849;" d="m25-71q-10-11-18-8t-7 18v822q0 14 7 18t18-8l396-396q5-4 8-11v397q0 14 7 18t18-8l396-396q4-4 7-11v379q0 14 11 25t25 11h71q15 0 25-11t11-25v-786q0-14-11-25t-25-11h-71q-15 0-25 11t-11 25v379q-3-6-7-11l-396-396q-11-11-18-8t-7 18v397q-3-6-8-11z" horiz-adv-x="1000" />
<glyph glyph-name="to-start-alt" unicode="&#xe84a;" d="m975 771q10 11 18 8t7-18v-822q0-14-7-18t-18 8l-396 396q-5 5-8 11v-397q0-14-7-18t-18 8l-396 396q-5 5-7 11v-379q0-14-11-25t-25-11h-71q-15 0-25 11t-11 25v786q0 14 11 25t25 11h71q15 0 25-11t11-25v-379q2 7 7 11l396 396q11 11 18 8t7-18v-396q3 6 8 10z" horiz-adv-x="1000" />
<glyph glyph-name="fast-fw" unicode="&#xe84b;" d="m25-71q-10-11-18-8t-7 18v822q0 14 7 18t18-8l396-396q5-4 8-11v397q0 14 7 18t18-8l396-396q10-11 10-25t-10-25l-396-396q-11-11-18-8t-7 18v396q-3-5-8-10z" horiz-adv-x="928.6" />
<glyph glyph-name="to-start" unicode="&#xe84c;" d="m546 771q11 11 18 8t7-18v-822q0-14-7-18t-18 8l-396 396q-5 5-7 11v-379q0-14-11-25t-25-11h-71q-15 0-25 11t-11 25v786q0 14 11 25t25 11h71q15 0 25-11t11-25v-379q2 7 7 11z" horiz-adv-x="571.4" />
<glyph glyph-name="fast-bw" unicode="&#xe84d;" d="m903 771q11 11 18 8t8-18v-822q0-14-8-18t-18 8l-396 396q-4 5-7 11v-397q0-14-7-18t-18 8l-396 396q-11 11-11 25t11 25l396 396q11 11 18 8t7-18v-396q3 6 7 10z" horiz-adv-x="928.6" />
<glyph glyph-name="export" unicode="&#xe84e;" d="m786 298v-144q0-67-47-114t-114-47h-464q-67 0-114 47t-47 114v464q0 66 47 113t114 48h142q7 0 13-6t5-12q0-15-15-18-43-15-74-34-5-2-9-2h-62q-37 0-63-26t-27-63v-464q0-37 27-63t63-27h464q37 0 63 27t26 63v119q0 11 10 16 16 7 30 21 9 9 20 4 12-5 12-16z m132 277l-214-214q-10-11-25-11-7 0-14 3-22 9-22 33v107h-89q-181 0-245-73-66-77-41-264 2-13-11-19-5-1-7-1-9 0-14 7-6 8-12 17t-22 38-28 56-21 64-10 68q0 27 2 50t8 51 15 49 27 45 38 42 52 34 70 27 89 17 110 6h89v107q0 24 22 33 7 3 14 3 14 0 25-11l214-214q11-11 11-25t-11-25z" horiz-adv-x="928.6" />
<glyph glyph-name="share" unicode="&#xe84f;" d="m650 200q62 0 106-43t44-107q0-62-44-106t-106-44-106 44-44 106q0 6 1 14t1 12l-260 156q-42-32-92-32-62 0-106 44t-44 106 44 106 106 44q54 0 92-30l260 156q0 4-1 12t-1 12q0 62 44 106t106 44 106-43 44-107q0-62-44-106t-106-44q-52 0-90 32l-262-156q2-8 2-26 0-16-2-24l262-156q36 30 90 30z" horiz-adv-x="800" />
<glyph glyph-name="th" unicode="&#xe852;" d="m286 154v-108q0-22-16-37t-38-16h-178q-23 0-38 16t-16 37v108q0 22 16 38t38 15h178q22 0 38-15t16-38z m0 285v-107q0-22-16-38t-38-15h-178q-23 0-38 15t-16 38v107q0 23 16 38t38 16h178q22 0 38-16t16-38z m357-285v-108q0-22-16-37t-38-16h-178q-23 0-38 16t-16 37v108q0 22 16 38t38 15h178q23 0 38-15t16-38z m-357 571v-107q0-22-16-38t-38-16h-178q-23 0-38 16t-16 38v107q0 22 16 38t38 16h178q22 0 38-16t16-38z m357-286v-107q0-22-16-38t-38-15h-178q-23 0-38 15t-16 38v107q0 23 16 38t38 16h178q23 0 38-16t16-38z m357-285v-108q0-22-16-37t-38-16h-178q-22 0-38 16t-16 37v108q0 22 16 38t38 15h178q23 0 38-15t16-38z m-357 571v-107q0-22-16-38t-38-16h-178q-23 0-38 16t-16 38v107q0 22 16 38t38 16h178q23 0 38-16t16-38z m357-286v-107q0-22-16-38t-38-15h-178q-22 0-38 15t-16 38v107q0 23 16 38t38 16h178q23 0 38-16t16-38z m0 286v-107q0-22-16-38t-38-16h-178q-22 0-38 16t-16 38v107q0 22 16 38t38 16h178q23 0 38-16t16-38z" horiz-adv-x="1000" />
<glyph glyph-name="th-list" unicode="&#xe853;" d="m286 154v-108q0-22-16-37t-38-16h-178q-23 0-38 16t-16 37v108q0 22 16 38t38 15h178q22 0 38-15t16-38z m0 285v-107q0-22-16-38t-38-15h-178q-23 0-38 15t-16 38v107q0 23 16 38t38 16h178q22 0 38-16t16-38z m714-285v-108q0-22-16-37t-38-16h-535q-23 0-38 16t-16 37v108q0 22 16 38t38 15h535q23 0 38-15t16-38z m-714 571v-107q0-22-16-38t-38-16h-178q-23 0-38 16t-16 38v107q0 22 16 38t38 16h178q22 0 38-16t16-38z m714-286v-107q0-22-16-38t-38-15h-535q-23 0-38 15t-16 38v107q0 23 16 38t38 16h535q23 0 38-16t16-38z m0 286v-107q0-22-16-38t-38-16h-535q-23 0-38 16t-16 38v107q0 22 16 38t38 16h535q23 0 38-16t16-38z" horiz-adv-x="1000" />
<glyph glyph-name="th-large" unicode="&#xe854;" d="m429 279v-215q0-29-22-50t-50-21h-286q-29 0-50 21t-21 50v215q0 29 21 50t50 21h286q29 0 50-21t22-50z m0 428v-214q0-29-22-50t-50-22h-286q-29 0-50 22t-21 50v214q0 29 21 50t50 22h286q29 0 50-22t22-50z m500-428v-215q0-29-22-50t-50-21h-286q-29 0-50 21t-21 50v215q0 29 21 50t50 21h286q29 0 50-21t22-50z m0 428v-214q0-29-22-50t-50-22h-286q-29 0-50 22t-21 50v214q0 29 21 50t50 22h286q29 0 50-22t22-50z" horiz-adv-x="928.6" />
<glyph glyph-name="sliders" unicode="&#xe855;" d="m196 64v-71h-196v71h196z m197 72q14 0 25-11t11-25v-143q0-14-11-25t-25-11h-143q-14 0-25 11t-11 25v143q0 15 11 25t25 11h143z m89 214v-71h-482v71h482z m-357 286v-72h-125v72h125z m732-572v-71h-411v71h411z m-536 643q15 0 26-10t10-26v-142q0-15-10-26t-26-10h-142q-15 0-26 10t-10 26v142q0 15 10 26t26 10h142z m358-286q14 0 25-10t10-25v-143q0-15-10-25t-25-11h-143q-15 0-25 11t-11 25v143q0 14 11 25t25 10h143z m178-71v-71h-125v71h125z m0 286v-72h-482v72h482z" horiz-adv-x="857.1" />
<glyph glyph-name="picture-1" unicode="&#xe856;" d="m357 529q0-45-31-76t-76-32-76 32-31 76 31 75 76 32 76-32 31-75z m572-215v-250h-786v107l178 179 90-89 285 285z m53 393h-893q-7 0-12-5t-6-13v-678q0-8 6-13t12-5h893q7 0 13 5t5 13v678q0 7-5 13t-13 5z m89-18v-678q0-37-26-63t-63-27h-893q-36 0-63 27t-26 63v678q0 37 26 63t63 27h893q37 0 63-27t26-63z" horiz-adv-x="1071.4" />
<glyph glyph-name="doc-1" unicode="&#xe859;" d="m819 638q16-16 27-42t11-50v-642q0-23-15-38t-38-16h-750q-23 0-38 16t-16 38v892q0 23 16 38t38 16h500q22 0 49-11t42-27z m-248 136v-210h210q-5 16-12 23l-175 175q-6 7-23 12z m215-853v572h-232q-23 0-38 15t-16 38v233h-429v-858h715z" horiz-adv-x="857.1" />
<glyph glyph-name="docs" unicode="&#xe85a;" d="m946 636q23 0 38-16t16-38v-678q0-23-16-38t-38-16h-535q-23 0-38 16t-16 38v160h-303q-23 0-38 16t-16 38v375q0 22 11 49t27 42l228 228q15 16 42 27t49 11h232q23 0 38-16t16-38v-183q38 23 71 23h232z m-303-119l-167-167h167v167z m-357 214l-167-167h167v167z m109-361l176 176v233h-214v-233q0-22-15-38t-38-15h-233v-357h286v143q0 22 11 49t27 42z m534-449v643h-215v-232q0-22-15-38t-38-15h-232v-358h500z" horiz-adv-x="1000" />
<glyph glyph-name="cog-alt" unicode="&#xe85b;" d="m500 350q0 59-42 101t-101 42-101-42-42-101 42-101 101-42 101 42 42 101z m429-286q0 29-22 51t-50 21-50-21-21-51q0-29 21-50t50-21 51 21 21 50z m0 572q0 29-22 50t-50 21-50-21-21-50q0-30 21-51t50-21 51 21 21 51z m-215-235v-103q0-6-4-11t-9-6l-86-14q-6-19-18-42 19-27 50-64 4-6 4-11 0-7-4-11-13-17-46-50t-44-33q-6 0-11 4l-64 50q-21-11-43-17-6-60-13-87-4-13-17-13h-104q-6 0-11 4t-5 10l-13 85q-19 6-42 18l-66-50q-4-4-11-4-6 0-12 4-80 75-80 90 0 5 4 10 5 8 23 30t26 34q-13 24-20 46l-85 13q-5 1-9 5t-4 11v103q0 6 4 11t9 6l86 14q7 19 18 42-19 27-50 64-4 6-4 11 0 7 4 11 12 17 46 50t44 33q6 0 12-4l64-50q19 10 43 18 6 60 13 86 3 13 16 13h104q6 0 11-4t6-10l13-85q19-6 41-17l66 49q5 4 11 4 7 0 12-4 81-75 81-90 0-5-4-10-7-9-24-30t-25-34q13-27 19-46l85-12q5-2 9-6t4-11z m357-298v-78q0-9-83-17-6-15-16-29 28-63 28-77 0-2-2-4-68-40-69-40-5 0-26 27t-29 37q-11-1-17-1t-17 1q-7-11-29-37t-25-27q-1 0-69 40-3 2-3 4 0 14 29 77-10 14-17 29-83 8-83 17v78q0 9 83 18 7 16 17 29-29 63-29 77 0 2 3 4 2 1 19 11t33 19 17 9q4 0 25-26t29-38q12 1 17 1t17-1q28 40 51 63l4 1q2 0 69-39 2-2 2-4 0-14-28-77 9-13 16-29 83-9 83-18z m0 572v-78q0-9-83-18-6-15-16-29 28-63 28-77 0-2-2-4-68-39-69-39-5 0-26 26t-29 38q-11-1-17-1t-17 1q-7-12-29-38t-25-26q-1 0-69 39-3 2-3 4 0 14 29 77-10 14-17 29-83 9-83 18v78q0 9 83 17 7 16 17 29-29 63-29 77 0 2 3 4 2 1 19 11t33 19 17 9q4 0 25-26t29-38q12 2 17 2t17-2q28 40 51 63l4 1q2 0 69-39 2-2 2-4 0-14-28-77 9-13 16-29 83-8 83-17z" horiz-adv-x="1071.4" />
<glyph glyph-name="basket" unicode="&#xe85c;" d="m357-7q0-30-21-51t-50-21-51 21-21 51 21 50 51 21 50-21 21-50z m500 0q0-30-21-51t-50-21-51 21-21 51 21 50 51 21 50-21 21-50z m72 607v-286q0-13-9-23t-23-12l-583-68q1-4 3-12t3-15 1-13q0-8-13-35h513q15 0 26-11t10-25-10-25-26-11h-571q-14 0-25 11t-11 25q0 8 6 22t17 33 11 21l-98 460h-114q-15 0-25 10t-11 25 11 26 25 10h143q9 0 16-3t11-9 7-14 4-15 3-16 3-14h670q14 0 25-11t11-25z" horiz-adv-x="928.6" />
<glyph glyph-name="lightbulb" unicode="&#xe85d;" d="m411 529q0-8-6-13t-12-5-13 5-5 13q0 25-30 39t-59 14q-8 0-13 5t-5 13 5 13 13 5q28 0 55-9t49-30 21-50z m89 0q0 40-19 74t-50 57-69 35-76 12-76-12-69-35-50-57-20-74q0-57 38-101 6-6 17-18t17-19q72-85 79-166h127q8 81 79 166 6 6 17 19t17 18q38 44 38 101z m71 0q0-87-57-150-25-27-42-49t-33-53-19-60q26-15 26-46 0-20-14-35 14-15 14-36 0-29-25-45 8-13 8-26 0-26-18-40t-43-14q-11-25-34-39t-48-15-49 15-33 39q-26 0-44 14t-17 40q0 13 7 26-25 16-25 45 0 21 14 36-14 15-14 35 0 31 26 46-2 28-19 60t-33 53-41 49q-58 63-58 150 0 55 25 103t65 79 92 49 104 19 104-19 91-49 66-79 24-103z" horiz-adv-x="571.4" />
<glyph glyph-name="desktop-1" unicode="&#xe85f;" d="m1000 296v465q0 7-5 12t-13 6h-893q-7 0-12-6t-6-12v-465q0-7 6-12t12-5h893q7 0 13 5t5 12z m71 465v-607q0-37-26-63t-63-27h-303q0-20 9-43t17-40 9-24q0-14-10-25t-25-11h-286q-15 0-25 11t-11 25q0 8 9 25t18 39 9 43h-304q-36 0-63 27t-26 63v607q0 37 26 63t63 26h893q37 0 63-26t26-63z" horiz-adv-x="1071.4" />
<glyph glyph-name="tablet" unicode="&#xe860;" d="m357 64q0 15-10 25t-26 11-25-11-10-25 10-25 25-10 26 10 10 25z m214 90v535q0 8-5 13t-12 5h-465q-7 0-12-5t-6-13v-535q0-8 6-13t12-5h465q7 0 12 5t5 13z m72 535v-607q0-37-26-63t-63-26h-465q-36 0-63 26t-26 63v607q0 37 26 63t63 27h465q36 0 63-27t26-63z" horiz-adv-x="642.9" />
<glyph glyph-name="mobile-1" unicode="&#xe861;" d="m259 64q0 19-13 32t-32 13-31-13-13-32 13-31 31-13 32 13 13 31z m116 90v392q0 8-5 13t-13 5h-286q-7 0-12-5t-5-13v-392q0-8 5-13t12-5h286q7 0 13 5t5 13z m-107 473q0 9-9 9h-89q-9 0-9-9t9-9h89q9 0 9 9z m161 9v-572q0-29-22-50t-50-21h-286q-29 0-50 21t-21 50v572q0 29 21 50t50 21h286q29 0 50-21t22-50z" horiz-adv-x="428.6" />
<glyph glyph-name="briefcase" unicode="&#xe862;" d="m357 707h286v72h-286v-72z m643-357v-268q0-37-26-63t-63-26h-822q-36 0-63 26t-26 63v268h375v-89q0-15 11-25t25-11h178q15 0 25 11t11 25v89h375z m-429 0v-71h-142v71h142z m429 268v-215h-1000v215q0 37 26 63t63 26h197v89q0 23 15 38t38 16h322q22 0 38-16t15-38v-89h197q37 0 63-26t26-63z" horiz-adv-x="1000" />
<glyph glyph-name="behance" unicode="&#xe863;" d="m1031 661h-285v-69h285v69z m-140-238q-51 0-82-29t-34-80h227q-10 109-111 109z m9-326q35 0 68 17t42 49h123q-55-171-238-171-119 0-190 73t-71 194q0 116 73 193t188 77q77 0 134-38t86-100 28-139q0-9-1-26h-367q0-62 32-96t93-33z m-745 27h165q114 0 114 94 0 100-111 100h-168v-194z m0 300h156q44 0 69 20t26 64q0 80-106 80h-145v-164z m-155 284h332q48 0 86-8t71-26 50-54 17-86q0-101-96-147 64-17 96-64t33-114q0-41-14-76t-37-58-55-39-67-24-75-7h-341v703z" horiz-adv-x="1142.9" />
<glyph glyph-name="youtube" unicode="&#xe864;" d="m542 156v-118q0-37-22-37-13 0-25 12v168q12 12 25 12 22 0 22-37z m188-1v-25h-50v25q0 38 25 38t25-38z m-539 122h60v52h-174v-52h59v-318h55v318z m161-318h50v276h-50v-211q-17-23-32-23-10 0-11 11-1 2-1 20v203h-50v-218q0-28 5-41 7-21 32-21 27 0 57 34v-30z m240 83v110q0 41-5 55-10 31-40 31-28 0-52-30v121h-50v-370h50v27q25-31 52-31 30 0 40 31 5 15 5 56z m188 6v7h-51q0-29-1-34-4-20-22-20-26 0-26 38v49h100v57q0 44-15 65-22 28-59 28-38 0-60-28-15-21-15-65v-96q0-44 16-65 22-29 60-29 40 0 60 30 10 15 12 30 1 5 1 33z m-339 509v117q0 39-24 39t-24-39v-117q0-39 24-39t24 39z m401-419q0-131-14-195-8-33-33-56t-57-25q-102-12-309-12t-310 12q-32 3-57 25t-32 56q-15 62-15 195 0 131 15 195 7 33 32 56t57 26q103 11 310 11t309-11q33-4 57-26t33-56q14-62 14-195z m-557 712h57l-67-223v-151h-56v151q-8 42-34 119-21 57-37 104h60l39-147z m207-186v-97q0-46-16-66-21-29-59-29-38 0-59 29-15 21-15 66v97q0 45 15 65 21 29 59 29 38 0 59-29 16-20 16-65z m187 91v-279h-51v31q-30-35-58-35-25 0-33 21-4 13-4 42v220h51v-205q0-19 0-20 2-12 12-12 15 0 32 24v213h51z" horiz-adv-x="857.1" />
<glyph glyph-name="volume-down" unicode="&#xe865;" d="m460 727l0-754-234 234-226 0 0 286 226 0z m133-602l-65 63c45 45 68 108 68 168 0 59-21 115-63 159l61 61c61-63 97-144 97-228 0-76-30-156-98-223z" horiz-adv-x="691" />
<glyph glyph-name="volume-up" unicode="&#xe866;" d="m460 727l0-754-234 234-226 0 0 286 226 0z m133-602l-65 63c45 45 68 108 68 168 0 59-21 115-63 159l61 61c61-63 97-144 97-228 0-76-30-156-98-223z m145-131l-70 69c77 77 116 182 116 288 0 105-39 211-116 289l66 66c97-98 151-229 151-361 0-124-46-249-147-350z" horiz-adv-x="885" />
<glyph glyph-name="dot" unicode="&#xe867;" d="m110 460q46 0 78-32t32-78q0-44-32-77t-78-33-78 33-32 77q0 46 32 78t78 32z" horiz-adv-x="220" />
<glyph glyph-name="dribbble" unicode="&#xe868;" d="m571 13q-23 134-78 278h-1l-1-1q-9-3-24-9t-56-27-77-46-73-64-57-82l-9 6q103-84 234-84 73 0 142 29z m-103 339q-12 27-29 62-174-52-376-52 0-4 0-12 0-69 24-132t69-112q28 49 69 93t80 69 73 45 55 27l21 7q2 1 7 2t7 3z m-59 118q-67 119-137 211-77-36-130-104t-72-152q169 0 339 45z m381-178q-117 33-228 16 49-133 71-262 62 42 104 106t53 140z m-449 413q-1 0-1 0 0 0 1 0z m329-80q-103 91-241 91-43 0-87-11 73-94 137-213 39 15 73 34t54 34 36 32 21 23z m125-271q-2 129-83 229l-1-1q-5-7-11-14t-24-24-40-34-55-36-74-36q14-30 25-53 1-4 3-10t5-9q20 2 41 4t41 1 39-1 35-2 32-3 27-4 20-3 14-3z m62-4q0-117-57-215t-156-156-215-58-216 58-155 156-58 215 58 215 155 156 216 58 215-58 156-156 57-215z" horiz-adv-x="857.1" />
<glyph glyph-name="tumblr" unicode="&#xe869;" d="m527 108l44-132q-12-19-61-37t-99-18q-58-1-107 15t-79 41-53 59-31 67-9 66v304h-94v120q40 14 72 39t51 50 32 57 19 55 8 49q1 3 3 5t4 2h136v-237h186v-140h-186v-289q0-17 3-32t13-29 28-23 45-8q44 1 75 16z" horiz-adv-x="571.4" />
<glyph glyph-name="rss" unicode="&#xe86a;" d="m184 93c0-51-43-91-93-91s-91 40-91 91c0 50 41 91 91 91s93-41 93-91z m261-85l-125 0c0 174-140 323-315 323l0 118c231 0 440-163 440-441z m259 0l-136 0c0 300-262 561-563 561l0 129c370 0 699-281 699-690z" horiz-adv-x="704" />
<glyph glyph-name="circle-empty" unicode="&#xe86b;" d="m429 654q-83 0-153-41t-110-111-41-152 41-152 110-111 153-41 152 41 110 111 41 152-41 152-110 111-152 41z m428-304q0-117-57-215t-156-156-215-58-216 58-155 156-58 215 58 215 155 156 216 58 215-58 156-156 57-215z" horiz-adv-x="857.1" />
<glyph glyph-name="circle-thin" unicode="&#xe86c;" d="m429 707q-73 0-139-28t-114-76-76-114-29-139 29-139 76-113 114-77 139-28 138 28 114 77 76 113 29 139-29 139-76 114-114 76-138 28z m428-357q0-117-57-215t-156-156-215-58-216 58-155 156-58 215 58 215 155 156 216 58 215-58 156-156 57-215z" horiz-adv-x="857.1" />
<glyph glyph-name="up" unicode="&#xe86d;" d="m660 336l-192 0 0-350-276 0 0 350-192 0 330 380z" horiz-adv-x="660" />
<glyph glyph-name="spin3" unicode="&#xe86e;" d="m494 850c-266 0-483-210-494-472-1-19 13-20 13-20l84 0c16 0 19 10 19 18 10 199 176 358 378 358 107 0 205-45 273-118l-58-57c-11-12-11-27 5-31l247-50c21-5 46 11 37 44l-58 227c-2 9-16 22-29 13l-65-60c-89 91-214 148-352 148z m409-508c-16 0-19-10-19-18-10-199-176-358-377-358-108 0-205 45-274 118l59 57c10 12 10 27-5 31l-248 50c-21 5-46-11-37-44l58-227c2-9 16-22 30-13l64 60c89-91 214-148 353-148 265 0 482 210 493 473 1 18-13 19-13 19l-84 0z" horiz-adv-x="1000" />
<glyph glyph-name="user" unicode="&#xe86f;" d="m0-150l0 156q0 24 58 58t159 71q99 35 137 73t37 101q0 29-27 72t-32 59q-12 35-29 135-10 52-14 93-2 22 6 50t28 60 67 51 110 21 110-21 67-51 28-60 6-50q-4-41-14-93-17-100-29-135-6-16-32-59t-27-72q0-64 37-101t137-73q217-80 217-129l0-156-1000 0z" horiz-adv-x="1000" />
<glyph glyph-name="menu" unicode="&#xe870;" d="m650 400q22 0 36-15t14-35-15-35-35-15l-600 0q-20 0-35 15t-15 35 14 35 36 15l600 0z m-600 100q-20 0-35 15t-15 35 14 35 36 15l600 0q22 0 36-15t14-35-15-35-35-15l-600 0z m600-300q22 0 36-15t14-35-15-35-35-15l-600 0q-20 0-35 15t-15 35 14 35 36 15l600 0z" horiz-adv-x="700" />
<glyph glyph-name="up-open" unicode="&#xe871;" d="m939 107l-92-92q-11-10-26-10t-25 10l-296 297-296-297q-11-10-25-10t-26 10l-92 92q-11 11-11 26t11 25l414 414q11 10 25 10t25-10l414-414q11-11 11-25t-11-26z" horiz-adv-x="1000" />
<glyph glyph-name="pencil" unicode="&#xe873;" d="m938 605q22-22 22-55t-22-55l-570-570q-22-21-60-38t-73-17l-235 0 0 234q0 35 17 74t38 60l570 570q23 22 55 22t55-22z m-794-426l65-64 431 433-64 63z m91-205q14 0 33 8-10 10-27 26t-50 50-56 56l-22 22q-9-21-9-32l0-78 52-52 79 0z m74 40l432 432-63 64-433-431z m469 469l67 67-165 165-67-66z" horiz-adv-x="960" />
<glyph glyph-name="lock-1" unicode="&#xe875;" d="m0-30v393q0 15 10 25t24 10h46v148q0 54 20 104t56 87q36 39 85 60t104 21q54 0 103-21t85-60q36-38 56-87t20-104v-148h46q14 0 24-10t10-25v-393q0-7-3-12t-7-8-10-7-14-6q-19-8-53-18t-111-24-147-14q-151 0-310 56-16 6-25 13t-9 20z m206 428h277v148q0 63-42 107-40 42-96 43-58-1-98-43-41-44-41-107v-148z" horiz-adv-x="689" />
<glyph glyph-name="lock-2" unicode="&#xe876;" d="m179 421h285v108q0 59-42 101t-101 41-101-41-41-101v-108z m464-53v-322q0-22-16-37t-38-16h-535q-23 0-38 16t-16 37v322q0 22 16 38t38 15h17v108q0 102 74 176t176 74 177-74 73-176v-108h18q23 0 38-15t16-38z" horiz-adv-x="642.9" />
<glyph glyph-name="brush" unicode="&#xe877;" d="m901 850q39 0 69-26t29-65q0-35-25-84-185-351-260-420-54-51-121-51-71 0-121 52t-51 122q0 72 52 119l356 323q33 30 72 30z m-507-577q22-42 59-73t84-42l1-40q2-119-72-193t-195-75q-68 0-121 26t-86 71-48 102-16 123q4-3 23-17t35-25 32-20 26-9q23 0 31 20 14 37 32 63t39 42 49 27 57 14 70 6z" horiz-adv-x="1000" />
<glyph glyph-name="iconmonstr-shopping-cart-4-icon" unicode="&#xe878;" d="m678 570h-580l105-237h400l75 237z m-460-79h357l-26-81h-295l-36 81z m684 154l-25-78h-58l-116-368h-443l-35 78h421l115 368h141z m-283-537c0-29-24-53-53-53s-52 24-52 53 23 52 52 52 53-23 53-52z m-174 0c0-29-23-53-52-53s-53 24-53 53 24 52 53 52 52-23 52-52z" horiz-adv-x="1000" />
<glyph glyph-name="chronometer" unicode="&#xe879;" d="m47 303c0-121 47-235 133-320 85-86 199-133 320-133 121 0 235 47 320 133 86 85 133 199 133 320s-47 235-133 321c-78 78-179 124-289 131v33h63c17 0 31 14 31 31s-14 31-31 31h-94-31-63c-17 0-31-14-31-31s14-31 31-31h63v-33c-109-7-211-53-289-131-86-86-133-200-133-321z m842 31h-30c-17 0-31-14-31-31s14-31 31-31h30c-6-82-38-160-92-222-1 1-1 2-2 3l-45 44c-12 12-32 12-44 0-12-12-12-32 0-44l44-44c1-1 2-2 4-3-63-54-140-86-223-92v45c0 18-14 32-31 32s-31-14-31-32v-45c-83 6-160 38-222 92 1 1 2 2 3 3l44 44c12 12 12 32 0 44-12 12-32 12-44 0l-44-44c-1-1-2-2-3-3-54 62-86 140-92 222h30c17 0 31 14 31 31s-14 31-31 31h-30c6 83 38 160 92 223 1-1 2-3 3-3l44-45c6-6 14-9 22-9s16 3 22 9c12 13 12 32 0 45l-44 44c-1 1-2 1-3 2 62 54 139 86 222 92v-29c0-18 14-32 31-32s31 14 31 32v29c83-6 160-38 223-92-2-1-3-1-4-2l-44-44c-12-13-12-32 0-45 6-6 14-9 22-9s16 3 22 9l45 45c1 0 1 2 2 3 54-63 86-140 92-223z m-358 23v134c0 17-14 31-31 31s-31-14-31-31v-134c-19-11-31-31-31-54 0-34 28-62 62-62s63 28 63 62c0 23-13 43-32 54z" horiz-adv-x="1000" />
<glyph glyph-name="clock-1" unicode="&#xe87a;" d="m500 850c-133 0-259-52-353-146-95-95-147-220-147-354s52-259 147-354c94-94 220-146 353-146s259 52 354 146c94 95 146 221 146 354s-52 259-146 354c-95 94-220 146-354 146z m309-809c-82-83-192-129-309-129-117 0-227 46-309 129-83 82-128 192-128 309s45 227 128 309c82 83 192 129 309 129 117 0 227-46 309-129 83-82 129-192 129-309s-46-227-129-309z m-78 244l-200 86v323c0 17-14 31-31 31s-31-14-31-31v-344c0-12 7-24 19-29l218-93c5-2 9-3 13-3 12 0 23 7 29 19 6 16-1 34-17 41z m-543 96h-32c-17 0-31-14-31-31s14-31 31-31h32c17 0 31 14 31 31s-14 31-31 31z m593-31c0-17 14-31 32-31h31c17 0 31 14 31 31s-14 31-31 31h-31c-18 0-32-14-32-31z m-281-281c-17 0-31-14-31-31v-32c0-17 14-31 31-31s31 14 31 31v32c0 17-14 31-31 31z" horiz-adv-x="1000" />
<glyph glyph-name="archive" unicode="&#xe87b;" d="m938 850h-875c-35 0-63-28-63-62v-876c0-34 28-62 63-62h875c34 0 62 28 62 62v876c0 34-28 62-62 62z m-875-94c0 18 14 32 31 32h812c18 0 32-14 32-32v-468h-250c-18 0-32-14-32-32v-93h-312v93c0 18-14 32-31 32h-250v468z m875-812c0-18-14-32-32-32h-812c-17 0-31 14-31 32v281h218v-94c0-17 14-31 32-31h375c17 0 31 14 31 31v94h219v-281z m-719 656h562c18 0 32 14 32 31s-14 32-32 32h-562c-17 0-31-14-31-32s14-31 31-31z m594-156c0 17-14 31-32 31h-562c-17 0-31-14-31-31s14-31 31-31h562c18 0 32 14 32 31z" horiz-adv-x="1000" />
<glyph glyph-name="band-aid" unicode="&#xe87c;" d="m688 850c-87 0-165-35-221-91l-375-375c-57-57-92-135-92-221 0-173 140-313 313-313 86 0 164 35 221 91l375 376c56 56 91 134 91 221 0 172-140 312-312 312z m-246-205l353-353-237-237-353 353 237 237z m-129-733c-138 0-250 113-250 251 0 66 26 129 73 176l25 25 353-353-25-25c-47-48-110-74-176-74z m551 449l-24-25-354 354 25 24c47 48 110 74 177 74 137 0 250-113 250-250 0-67-26-130-74-177z" horiz-adv-x="1000" />
<glyph glyph-name="bank" unicode="&#xe87d;" d="m938 38h-94v437h94c28 0 53 19 60 47 7 27-5 56-29 70l-438 250c-10 5-20 8-31 8s-21-3-31-8l-437-250c-25-14-37-43-30-70 7-28 32-47 61-47h93v-437h-93c-35 0-63-28-63-63v-125h1000v125c0 35-28 63-62 63z m-844 500c-19 0-9 12-1 17 8 4 314 179 390 223 11 6 23 6 33 1 74-43 381-218 390-224 11-6 21-17 0-17s-793 0-812 0z m687-63v-437h-62v437h62z m-125 0v-437h-62v437h62z m-125 0v-437h-62v437h62z m-125 0v-437h-62v437h62z m-125 0v-437h-62v437h62z m657-563h-875v32c0 17 14 31 31 31h812c18 0 32-14 32-31v-32z" horiz-adv-x="1000" />
<glyph glyph-name="basketball" unicode="&#xe87e;" d="m854 704c-196 195-512 195-707 0-196-196-196-512 0-708 195-195 511-195 707 0 195 196 195 512 0 708z m82-379c-98 10-200-19-280-87l-112 112 286 286c77-89 113-201 106-311z m-280-175l130-130c-58-51-127-84-199-99-8 81 15 163 69 229z m44 44c66 54 148 77 229 69-15-72-48-141-99-199l-130 130z m86 486l-286-286-112 112c68 80 97 182 87 280 110 7 222-29 311-106z m-486-174c-66-54-148-77-229-69 15 72 48 141 99 199l130-130z m-86 174c58 51 127 84 199 99 8-80-15-163-69-229l-130 130z m-150-305c98-10 200 19 280 87l112-112-286-286c-77 89-113 201-106 311z m150-355l286 286 112-112c-68-80-97-182-87-280-110-7-222 29-311 106z" horiz-adv-x="1000" />
<glyph glyph-name="battery" unicode="&#xe87f;" d="m938 506h-63v94c0 35-28 63-62 63h-750c-35 0-63-28-63-63v-500c0-34 28-62 63-62h750c34 0 62 28 62 62v94h63c34 0 62 28 62 62v188c0 34-28 62-62 62z m0-218c0-18-14-32-32-32h-62c-17 0-31-14-31-31v-94c0-17-14-31-32-31h-687c-17 0-31 14-31 31v438c0 17 14 31 31 31h687c18 0 32-14 32-31v-94c0-17 14-31 31-31h62c18 0 32-14 32-31v-125z m-813-125h438l125 375h-563v-375z m63 312h413l-83-250h-330v250z" horiz-adv-x="1000" />
<glyph glyph-name="cloudy" unicode="&#xe880;" d="m874 347c-15 176-163 316-343 316-159 0-297-104-337-250h-6c-104 0-188-85-188-188s84-187 188-187h656c86 0 156 70 156 156 0 76-54 139-126 153z m-30-247h-656c-69 0-125 56-125 125s56 125 125 125h31c15 0 28 11 31 26 24 130 142 224 281 224 155 0 282-126 282-281 0-17 14-31 31-31 52 0 94-42 94-94s-42-94-94-94z" horiz-adv-x="1000" />
<glyph glyph-name="angle-left" unicode="&#xe881;" d="m350 546q0-7-6-12l-219-220 219-219q6-6 6-13t-6-13l-28-28q-5-5-12-5t-13 5l-260 260q-6 6-6 13t6 13l260 260q5 6 13 6t12-6l28-28q6-5 6-13z" horiz-adv-x="357.1" />
<glyph glyph-name="angle-right" unicode="&#xe882;" d="m332 314q0-7-6-13l-260-260q-5-5-12-5t-13 5l-28 28q-6 6-6 13t6 13l219 219-219 220q-6 5-6 12t6 13l28 28q5 6 13 6t12-6l260-260q6-5 6-13z" horiz-adv-x="357.1" />
<glyph glyph-name="angle-up" unicode="&#xe883;" d="m600 189q0-7-6-13l-28-27q-5-6-12-6t-13 6l-220 219-219-219q-5-6-13-6t-13 6l-27 27q-6 6-6 13t6 13l260 260q5 6 12 6t13-6l260-260q6-5 6-13z" horiz-adv-x="642.9" />
<glyph glyph-name="angle-down" unicode="&#xe884;" d="m600 439q0-7-6-13l-260-260q-5-5-13-5t-12 5l-260 260q-6 6-6 13t6 13l27 28q6 6 13 6t13-6l219-219 220 219q5 6 13 6t12-6l28-28q6-5 6-13z" horiz-adv-x="642.9" />
<glyph glyph-name="heart-2" unicode="&#xe885;" d="m790 642q70-64 70-156t-70-156l-360-330-360 330q-70 64-70 156t70 156q64 58 152 58t150-58l58-52 56 52q64 58 152 58t152-58z m-54-260q42 40 42 104 0 66-38 100-38 38-102 38-52 0-104-48l-104-92-106 92q-48 48-102 48-64 0-104-38-38-36-38-100 0-66 44-104l306-286z" horiz-adv-x="860" />
<glyph glyph-name="comment-1" unicode="&#xe886;" d="m781 662l-625 0q-21 0-37-15t-15-36l0-365q0-21 15-37t37-16l157 0 0-8 8 8 460 0q22 0 37 16t16 37l0 365q0 21-16 36t-37 15z m0 105q65 0 111-46t46-110l0-365q0-65-46-111t-111-46l-416 0-156-156 0 156-53 0q-65 0-110 46t-46 111l0 365q0 65 46 110t110 46l625 0z" horiz-adv-x="938" />
<glyph glyph-name="heart" unicode="&#xe887;" d="m508-66q-17 0-29 9-26 17-85 58t-154 112-134 110q-106 106-106 264 0 116 82 198t198 82q143 0 228-118 38 55 99 86t129 32q117 0 198-82t81-198q0-158-106-264-38-38-133-110t-155-113-83-57q-13-9-30-9z m-228 729q-72 0-124-51t-52-125q0-114 76-190 79-79 328-248 248 169 327 248 76 76 76 190 0 73-51 125t-124 51q-73 0-125-51t-51-125q0-22-16-37t-36-15-37 15-15 37q0 73-52 125t-124 51z" horiz-adv-x="1015" />
<glyph glyph-name="link-1" unicode="&#xe888;" d="m294 116q14 14 34 14t36-14q32-34 0-70l-42-40q-56-56-132-56-78 0-134 56t-56 132q0 78 56 134l148 148q70 68 144 77t128-43q16-16 16-36t-16-36q-36-32-70 0-50 48-132-34l-148-146q-26-26-26-64t26-62q26-26 63-26t63 26z m450 574q56-56 56-132 0-78-56-134l-158-158q-74-72-150-72-62 0-112 50-14 14-14 34t14 36q14 14 35 14t35-14q50-48 122 24l158 156q28 28 28 64 0 38-28 62-24 26-56 31t-60-21l-50-50q-16-14-36-14t-34 14q-34 34 0 70l50 50q54 54 127 51t129-61z" horiz-adv-x="800" />
<glyph glyph-name="heart-1" unicode="&#xe889;" d="m500-79q-14 0-25 10l-348 336q-5 5-15 15t-31 36-38 55-30 67-13 77q0 123 71 192t196 70q34 0 70-12t67-33 54-38 42-38q20 20 42 38t54 38 67 33 70 12q125 0 196-70t71-192q0-123-128-251l-347-335q-10-10-25-10z" horiz-adv-x="1000" />
<glyph glyph-name="calendar-empty" unicode="&#xe88b;" d="m71-79h786v572h-786v-572z m215 679v161q0 8-5 13t-13 5h-36q-8 0-13-5t-5-13v-161q0-8 5-13t13-5h36q8 0 13 5t5 13z m428 0v161q0 8-5 13t-13 5h-35q-8 0-13-5t-5-13v-161q0-8 5-13t13-5h35q8 0 13 5t5 13z m215 36v-715q0-29-22-50t-50-21h-786q-29 0-50 21t-21 50v715q0 29 21 50t50 21h72v54q0 36 26 63t63 26h36q37 0 63-26t26-63v-54h214v54q0 36 27 63t63 26h35q37 0 63-26t27-63v-54h71q29 0 50-21t22-50z" horiz-adv-x="928.6" />
<glyph glyph-name="arrows-cw" unicode="&#xe88c;" d="m843 261q0-3 0-4-36-150-150-243t-267-93q-81 0-157 31t-136 88l-72-72q-11-11-25-11t-25 11-11 25v250q0 14 11 25t25 11h250q14 0 25-11t10-25-10-25l-77-77q40-37 90-57t105-20q74 0 139 37t104 99q6 10 29 66 5 13 17 13h107q8 0 13-6t5-12z m14 446v-250q0-14-10-25t-26-11h-250q-14 0-25 11t-10 25 10 25l77 77q-82 77-194 77-75 0-140-37t-104-99q-6-10-29-66-5-13-17-13h-111q-7 0-13 6t-5 12v4q36 150 151 243t268 93q81 0 158-31t137-88l72 72q11 11 25 11t26-11 10-25z" horiz-adv-x="857.1" />
<glyph glyph-name="calendar" unicode="&#xe88d;" d="m71-79h161v161h-161v-161z m197 0h178v161h-178v-161z m-197 197h161v178h-161v-178z m197 0h178v178h-178v-178z m-197 214h161v161h-161v-161z m411-411h179v161h-179v-161z m-214 411h178v161h-178v-161z m428-411h161v161h-161v-161z m-214 197h179v178h-179v-178z m-196 482v161q0 7-6 12t-12 6h-36q-7 0-12-6t-6-12v-161q0-7 6-13t12-5h36q7 0 12 5t6 13z m410-482h161v178h-161v-178z m-214 214h179v161h-179v-161z m214 0h161v161h-161v-161z m18 268v161q0 7-5 12t-13 6h-35q-8 0-13-6t-5-12v-161q0-7 5-13t13-5h35q8 0 13 5t5 13z m215 36v-715q0-29-22-50t-50-21h-786q-29 0-50 21t-21 50v715q0 29 21 50t50 21h72v54q0 36 26 63t63 26h36q37 0 63-26t26-63v-54h214v54q0 36 27 63t63 26h35q37 0 63-26t27-63v-54h71q29 0 50-21t22-50z" horiz-adv-x="928.6" />
<glyph glyph-name="plug" unicode="&#xe88e;" d="m979 597q21-20 21-50t-21-51l-223-223 83-84-89-89q-91-91-217-104t-230 56l-202-202h-101v101l202 202q-69 103-56 230t104 217l89 89 84-83 223 223q21 21 51 21t50-21 21-50-21-51l-223-224 131-130 223 223q22 21 51 21t50-21z" horiz-adv-x="1000" />
<glyph glyph-name="fast_food" unicode="&#xe892;" d="m656-9v125c0 17-14 31-31 31h-594c-17 0-31-14-31-31v-125c0-18 14-32 31-32h594c17 0 31 14 31 32z m-62 31h-531v62h531v-62z m-500 219c-17 0-31-14-31-32s14-31 31-31h469c17 0 31 14 31 31s-14 32-31 32h-469z m-63 31h594c17 0 31 14 31 31 0 2-3 219-328 219s-328-217-328-219c0-17 14-31 31-31z m297 187c189 0 243-79 259-125h-518c16 46 71 125 259 125z m641 125h-161l-27 162c-3 17-19 28-36 26-17-3-29-19-26-36l25-152h-25c-9 0-17-3-23-9-6-7-9-15-8-24l31-562c1-17 14-30 31-30h188c16 0 30 13 31 30l31 562c0 9-3 17-8 24-6 6-15 9-23 9z m-61-562h-128l-28 500h29c0 0 0 0 0 0s0 0 0 0h155l-28-500z" horiz-adv-x="1000" />
<glyph glyph-name="dialogue_think" unicode="&#xe89a;" d="m500 350c52 0 94 42 94 94s-42 94-94 94-94-42-94-94 42-94 94-94z m0 125c17 0 31-14 31-31s-14-31-31-31-31 14-31 31 14 31 31 31z m-250-125c52 0 94 42 94 94s-42 94-94 94-94-42-94-94 42-94 94-94z m0 125c17 0 31-14 31-31s-14-31-31-31-31 14-31 31 14 31 31 31z m500-125c52 0 94 42 94 94s-42 94-94 94-94-42-94-94 42-94 94-94z m0 125c17 0 31-14 31-31s-14-31-31-31-31 14-31 31 14 31 31 31z m219 328h-938c-17 0-31-14-31-31v-656c0-18 14-32 31-32h219v-156c0-12 7-23 18-28 4-2 9-3 13-3 8 0 15 2 21 7l210 180h457c17 0 31 14 31 32v656c0 17-14 31-31 31z m-31-656h-438c-7 0-15-3-20-8l-167-143v120c0 17-14 31-32 31h-218v594h875v-594z" horiz-adv-x="1000" />
<glyph glyph-name="eye-1" unicode="&#xe8a1;" d="m500 616c-325 0-488-238-495-249-7-10-7-24 0-34 7-10 170-249 495-249s488 239 495 249c7 10 7 24 0 34-7 11-169 249-495 249z m0-469c-242 0-387 151-429 203 42 52 186 203 429 203 242 0 387-151 430-203-43-52-187-203-430-203z m0 344c-77 0-141-63-141-141s64-141 141-141 141 64 141 141-63 141-141 141z m0-219c-43 0-78 35-78 78s35 78 78 78 78-35 78-78-35-78-78-78z" horiz-adv-x="1000" />
<glyph glyph-name="flag-1" unicode="&#xe8a3;" d="m188 850c-18 0-32-14-32-31v-938c0-17 14-31 32-31s31 14 31 31v469h594c10 0 20 6 26 15 6 9 6 21 2 30l-87 174 87 173c4 10 4 22-2 31-6 9-16 15-26 15h-594v31c0 17-14 31-31 31z m574-125l-71-142c-5-9-5-19 0-28l71-142h-543v312h543z" horiz-adv-x="1000" />
<glyph glyph-name="home-1" unicode="&#xe8a6;" d="m625-150h188c17 0 31 14 31 31v438h125c12 0 24 7 29 19 5 12 2 25-7 34l-469 469c-12 12-32 12-44 0l-469-469c-9-9-12-22-7-34 5-12 17-19 29-19h125v-438c0-17 14-31 32-31h187c17 0 31 14 31 31v219h188v-219c0-17 14-31 31-31z m-250 313c-17 0-31-14-31-32v-219h-125v438c0 17-14 31-31 31h-81l393 394 393-394h-80c-18 0-32-14-32-31v-438h-125v219c0 18-14 32-31 32h-250z" horiz-adv-x="1000" />
<glyph glyph-name="home173" unicode="&#xe8a7;" d="m984 414l-454 391c-17 15-43 15-60 0l-454-391c-19-16-21-45-5-64 16-19 45-21 64-5l425 366 425-366c9-7 19-11 30-11 12 0 25 6 34 16 16 19 14 48-5 64z m-484-18c-56 0-102-46-102-103s46-102 102-102 102 46 102 102-46 103-102 103z m15 251c-9 7-21 7-30 0l-342-296c-5-4-8-10-8-17v-427c0-13 10-23 23-23h685c12 0 22 10 22 23v427c0 7-3 13-8 17l-342 296z m3-680c-4-6-11-9-18-9s-14 3-18 9c-18 23-175 227-175 326 0 107 87 193 193 193s193-86 193-193c0-99-157-303-175-326z" horiz-adv-x="1000" />
<glyph glyph-name="hotel4" unicode="&#xe8a8;" d="m1000 256c0 0 0 1 0 2 0 1 0 2 0 3-2 100-53 158-128 193v52c0 103-76 164-204 164-95 0-162-34-189-95-31 51-94 80-182 80-127 0-203-61-203-164v-48c-57-35-94-93-94-185v-89 0 0-103c0-20 16-36 36-36h48c19 0 35 16 35 36v85h761v-85c0-20 16-36 36-36h48c20 0 36 16 36 36v103 0 0 87z m-964-69v53h928v-53l-928 0 0 0z m465 319c0 116 117 128 167 128s168-12 168-128v-38c-99 32-226 34-336 34 0 1 0 1 0 1 0 1 1 2 1 3z m-371-15c0 116 117 128 167 128 49 0 160-12 167-117-119 0-244-2-334-40v29z m352-25c128 0 267 0 362-38 2-1 4-2 6-3 64-27 107-73 113-149h-927c12 176 193 190 446 190z m-446-400v85h48l0-85h-48z m880 0v85h48l0-85h-48z" horiz-adv-x="1000" />
<glyph glyph-name="hourglass" unicode="&#xe8a9;" d="m781 600v94h63c17 0 31 14 31 31v94c0 17-14 31-31 31h-688c-17 0-31-14-31-31v-94c0-17 14-31 31-31h63v-94c0-109 62-203 153-250-91-47-153-141-153-250v-94h-63c-17 0-31-14-31-31v-94c0-17 14-31 31-31h688c17 0 31 14 31 31v94c0 17-14 31-31 31h-63v94c0 109-62 203-153 250 91 47 153 141 153 250z m-593 188h625v-32h-625v32z m625-876h-625v32h625v-32z m-94 188v-94h-438v94c0 121 98 219 219 219s219-98 219-219z m-219 281c-121 0-219 98-219 219v94h438v-94c0-121-98-219-219-219z" horiz-adv-x="1000" />
<glyph glyph-name="house149" unicode="&#xe8aa;" d="m799 56h-318v168h-151v-168h-117v268h-51v-318h687v318h-50v-268z m-419 118h50v-118h-50v118z m323 520l-139-142v124h-167v-94l-14 10-383-262 28-42 354 243 334-242 29 40-200 146h19v33l19-13 119 123 260-325 38 32-297 369z m-263-135h7v67h67v-135l-74 68z" horiz-adv-x="1000" />
<glyph glyph-name="image" unicode="&#xe8ab;" d="m31-9h938c17 0 31 14 31 31v656c0 17-14 31-31 31h-938c-17 0-31-14-31-31v-656c0-17 14-31 31-31z m32 62v49l311 283 166-166c7-7 16-10 25-9 9 0 17 5 23 12l73 98 277-249v-18h-875z m875 594v-492l-261 234c-6 6-15 9-24 8-8-1-16-6-22-13l-72-96-162 162c-12 12-31 13-43 1l-291-265v461h875z m-141-250c60 0 109 49 109 109s-49 110-109 110-109-49-109-110 49-109 109-109z m0 156c26 0 47-21 47-47s-21-47-47-47-47 21-47 47 21 47 47 47z" horiz-adv-x="1000" />
<glyph glyph-name="list" unicode="&#xe8ae;" d="m31 506h94c17 0 31 14 31 32s-14 31-31 31h-94c-17 0-31-14-31-31s14-32 31-32z m938 63h-625c-17 0-31-14-31-31s14-32 31-32h625c17 0 31 14 31 32s-14 31-31 31z m-938-250h94c17 0 31 14 31 31s-14 31-31 31h-94c-17 0-31-14-31-31s14-31 31-31z m938 62h-625c-17 0-31-14-31-31s14-31 31-31h625c17 0 31 14 31 31s-14 31-31 31z m-938-250h94c17 0 31 14 31 32s-14 31-31 31h-94c-17 0-31-14-31-31s14-32 31-32z m938 63h-625c-17 0-31-14-31-31s14-32 31-32h625c17 0 31 14 31 32s-14 31-31 31z" horiz-adv-x="1000" />
<glyph glyph-name="medical_case" unicode="&#xe8b0;" d="m969 600h-266v94c0 17-14 31-31 31h-344c-17 0-31-14-31-31v-94h-266c-17 0-31-14-31-31v-563c0-17 14-31 31-31h938c17 0 31 14 31 31v563c0 17-14 31-31 31z m-610 63h282v-63h-282v63z m579-625h-875v500h875v-500z m-407 281v125c0 17-14 31-31 31s-31-14-31-31v-125h-125c-17 0-31-14-31-31s14-32 31-32h125v-125c0-17 14-31 31-31s31 14 31 31v125h125c18 0 32 14 32 32s-14 31-32 31h-125z" horiz-adv-x="1000" />
<glyph glyph-name="microphone_1" unicode="&#xe8b1;" d="m469 165v-253h-203c-18 0-32-14-32-31s14-31 32-31h468c18 0 32 14 32 31s-14 31-32 31h-203v253c131 18 250 147 250 279 0 17-14 31-31 31s-31-14-31-31c0-109-111-219-219-219s-219 110-219 219c0 17-14 31-31 31s-31-14-31-31c0-132 119-261 250-279z m31 123c86 0 156 70 156 156v250c0 86-70 156-156 156s-156-70-156-156v-250c0-86 70-156 156-156z m0 500c52 0 94-42 94-94v-16h-31c-18 0-32-14-32-31s14-31 32-31h31v-63h-31c-18 0-32-14-32-31s14-31 32-31h31v-47c0-52-42-94-94-94s-94 42-94 94v47h32c17 0 31 14 31 31s-14 31-31 31h-32v63h32c17 0 31 14 31 31s-14 31-31 31h-32v16c0 52 42 94 94 94z" horiz-adv-x="1000" />
<glyph glyph-name="microphone_2" unicode="&#xe8b2;" d="m72-16l125-125c6-6 14-9 22-9h94c8 0 16 3 22 9l321 322 50-50-103-103c-12-12-12-32 0-44 12-12 32-12 44 0l125 125c12 12 12 32 0 44l-94 94c-12 12-32 12-44 0l-334-335h-68l-94 94 18 19 41-41c6-6 14-9 22-9s16 3 22 9l404 405c19-5 38-8 58-8 129 0 235 105 235 235s-106 234-235 234-234-105-234-234c0-20 3-40 7-58l-404-405c-12-12-12-32 0-44l40-40-40-41c-12-12-12-32 0-44z m631 804c95 0 172-78 172-172s-77-172-172-172-172 77-172 172 77 172 172 172z m-120-373l-83-83-81 81 83 83c20-34 48-61 81-81z m-208-47l81-80-237-237-81 80 237 237z" horiz-adv-x="1000" />
<glyph glyph-name="minus-1" unicode="&#xe8b3;" d="m500 850c-134 0-259-52-353-146-95-95-147-220-147-354s52-259 147-354c94-94 219-146 353-146s259 52 354 146c94 95 146 221 146 354s-52 259-146 354c-95 94-220 146-354 146z m309-809c-82-83-192-129-309-129s-227 46-309 129c-83 82-128 192-128 309s45 227 128 309c82 83 192 129 309 129s227-46 309-129c83-82 129-192 129-309s-46-227-129-309z m-28 340h-562c-17 0-31-14-31-31s14-31 31-31h562c18 0 32 14 32 31s-14 31-32 31z" horiz-adv-x="1000" />
<glyph glyph-name="multiple_image" unicode="&#xe8b4;" d="m969 756h-813c-17 0-31-14-31-31v-94h-94c-17 0-31-14-31-31v-625c0-17 14-31 31-31h813c17 0 31 14 31 31v94h94c17 0 31 14 31 31v625c0 17-14 31-31 31z m-156-187v-495l-168 144c-10 8-25 10-36 3l-134-81-201 231c-6 6-14 10-23 10-9 1-17-3-23-9l-165-165v362h750z m-750-451l186 186 196-225c10-11 27-14 40-6l137 82 174-149h-733v112z m875 13h-63v469c0 17-14 31-31 31h-656v63h750v-563z m-297 157c60 0 109 49 109 109s-49 109-109 109-110-49-110-109 49-109 110-109z m0 156c26 0 47-21 47-47s-21-47-47-47-47 21-47 47 21 47 47 47z" horiz-adv-x="1000" />
<glyph glyph-name="paper_sheet" unicode="&#xe8bb;" d="m813-150c34 0 62 28 62 62v876c0 34-28 62-62 62h-407c-25 0-57-13-75-31l-175-175c-18-18-31-50-31-75v-657c0-34 28-62 63-62h625z m0 938l0-876h0-625v657h156c34 0 62 28 62 62v157h407z m-469-45v-112h-112l112 112z m156-143h188c17 0 31 14 31 31s-14 32-31 32h-188c-17 0-31-14-31-32s14-31 31-31z m188-94h-375c-18 0-32-14-32-31s14-31 32-31h375c17 0 31 14 31 31s-14 31-31 31z m0-156h-375c-18 0-32-14-32-31s14-31 32-31h375c17 0 31 14 31 31s-14 31-31 31z m0-156h-375c-18 0-32-14-32-31s14-32 32-32h375c17 0 31 14 31 32s-14 31-31 31z m0-156h-375c-18 0-32-14-32-32s14-31 32-31h375c17 0 31 14 31 31s-14 32-31 32z" horiz-adv-x="1000" />
<glyph glyph-name="pen_pencil_ruler" unicode="&#xe8bc;" d="m547-150c34 0 62 28 62 62v876c0 34-28 62-62 62h-188c-34 0-62-28-62-62v-876c0-34 28-62 62-62h188z m-188 938h188v-94h-94c-17 0-31-14-31-31s14-32 31-32h94v-93h-16c-17 0-31-14-31-32s14-31 31-31h16v-94h-94c-17 0-31-14-31-31s14-31 31-31h94v-94h-16c-17 0-31-14-31-31s14-31 31-31h16v-94h-94c-17 0-31-14-31-31s14-32 31-32h94v-94h-188v876z m-218-922c17 0 32 11 42 29l34 69c10 20 17 52 17 74v718c0 35-28 63-62 63h-63c-34 0-62-28-62-63v-718c0-22 7-54 17-74l35-69c9-18 24-29 42-29z m20 126l-20-41-21 41c-5 11-11 33-11 46v562h63v-562c0-13-5-35-11-46z m11 764v-93h-63v93h63z m670-20l-34 69c-10 18-25 29-42 29s-33-11-42-29l-35-69c-10-20-17-51-17-73v-719c0-35 28-63 62-63h63c34 0 62 28 62 63h32c34 0 62 28 62 62v125c0 18-14 32-31 32s-31-14-31-32v-125h-32v657c0 22-7 53-17 73z m-45-792h-63v719c0 12 6 34 11 45l21 41 20-41c6-11 11-33 11-45v-719z" horiz-adv-x="1000" />
<glyph glyph-name="pencil-1" unicode="&#xe8bd;" d="m49-140c8 0 16 2 24 5l224 100c19 9 45 26 60 41l612 612c12 12 18 28 18 45s-6 32-18 44l-112 112c-12 12-28 18-44 18s-33-6-45-18l-627-628c-15-15-33-41-41-61l-86-208c-9-23-2-38 2-45 8-11 20-17 33-17z m264 191c0 0 0-1 0 0l-113 112 519 518 112-112-518-518z m500 724l112-112-50-50-112 112 50 50z m-655-669c1 2 2 5 3 7l97-97-168-75 68 165z" horiz-adv-x="1000" />
<glyph glyph-name="pencil_ruler" unicode="&#xe8be;" d="m41 835c-20 0-41-15-41-47v-876c0-34 28-62 63-62h875c30 0 41 18 44 26 3 7 8 28-13 49l-894 894c-13 13-26 16-34 16z m22-923v63h62c17 0 31 14 31 31s-14 32-31 32h-62v62h31c17 0 31 14 31 31s-14 32-31 32h-31v62h62c17 0 31 14 31 31s-14 32-31 32h-62v62h31c17 0 31 14 31 31s-14 32-31 32h-31v62h62c17 0 31 14 31 31s-14 32-31 32h-62v203l830-829h-830z m187 63h375c31 0 41 18 45 26 3 8 8 28-14 49l-393 394c-13 13-26 16-35 16-19 0-40-15-40-47v-375c0-35 28-63 62-63z m0 393l331-330h-331l0 330z m617-243l64-16c5-2 10-2 15-2 0 0 0 0 0 0 15 0 29 6 37 17 10 13 13 28 9 45l-17 65c-5 22-21 50-37 66l-519 519c-12 12-27 18-44 18s-32-6-44-18l-50-50c-24-24-24-64 0-88l519-518c16-17 44-33 67-38z m48 93l11-44-44 11c-12 3-30 14-38 22l-425 424 50 50 424-425c9-8 19-26 22-38z m-540 557l50-50-50-50-50 50 50 50z" horiz-adv-x="1000" />
<glyph glyph-name="plan1" unicode="&#xe8c0;" d="m977 842h-954c-12 0-23-10-23-23v-750c0-13 11-24 23-24h540c13 0 23 11 23 24s-10 23-23 23h-188v63c0 13-10 23-23 23s-24-10-24-23v-63h-281v375h281v-125c0-13 11-23 24-23s23 10 23 23v31h297c13 0 23 11 23 24s-10 23-23 23h-297v282c0 13-10 23-23 23s-24-10-24-23v-188h-281v281h906v-375h-125v63c0 13-10 23-23 23s-24-10-24-23v-86c0-13 11-24 24-24h148v-468h-203v156c0 13-10 23-23 23s-24-10-24-23v-180c0-13 11-23 24-23h250c13 0 23 10 23 23v938c0 13-10 23-23 23z" horiz-adv-x="1000" />
<glyph glyph-name="plus-1" unicode="&#xe8c1;" d="m500 850c-134 0-259-52-353-146-95-95-147-220-147-354s52-259 147-354c94-94 219-146 353-146 134 0 259 52 354 146 94 95 146 221 146 354s-52 259-146 354c-95 94-220 146-354 146z m309-809c-82-83-192-129-309-129-117 0-227 46-309 129-83 82-128 192-128 309s45 227 128 309c82 83 192 129 309 129 117 0 227-46 309-129 83-82 129-192 129-309s-46-227-129-309z m-28 340h-250v250c0 18-14 32-31 32s-31-14-31-32v-250h-250c-17 0-31-14-31-31s14-31 31-31h250v-250c0-17 14-31 31-31s31 14 31 31v250h250c18 0 32 14 32 31s-14 31-32 31z" horiz-adv-x="1000" />
<glyph glyph-name="portable_pc" unicode="&#xe8c2;" d="m31 6h938c17 0 31 14 31 32v93c0 18-14 32-31 32h-63v500c0 17-14 31-31 31h-750c-17 0-31-14-31-31v-500h-63c-17 0-31-14-31-32v-93c0-18 14-32 31-32z m125 625h688v-468h-688v468z m-93-531h62 750 63v-31h-875v31z m415 491c-6-6-9-14-9-22 0-8 3-16 9-22 6-6 14-9 22-9s16 3 22 9c6 6 9 14 9 22 0 8-3 16-9 22-11 12-32 12-44 0z" horiz-adv-x="1000" />
<glyph glyph-name="pricetag" unicode="&#xe8c3;" d="m384-141c6-6 14-9 22-9s16 3 22 9l563 563c6 6 9 14 9 22v375c0 17-14 31-31 31h-375c-8 0-16-3-22-9l-563-563c-12-12-12-32 0-44l375-375z m223 929h331v-331l-532-532-330 331 531 532z m127-329c69 0 125 57 125 125s-56 125-125 125-125-56-125-125 57-125 125-125z m0 188c35 0 63-28 63-63s-28-62-63-62-62 28-62 62 28 63 62 63z" horiz-adv-x="1000" />
<glyph glyph-name="printer" unicode="&#xe8c4;" d="m31 6h188v-125c0-17 14-31 31-31h500c17 0 31 14 31 31v125h188c17 0 31 14 31 32v500c0 17-14 31-31 31h-188v250c0 17-14 31-31 31h-500c-17 0-31-14-31-31v-250h-188c-17 0-31-14-31-31v-500c0-18 14-32 31-32z m688-94h-438v313h438v-313z m-438 876h438v-219h-438v219z m-218-282h187 500 188v-437h-157v187c0 18-14 32-31 32h-500c-17 0-31-14-31-32v-187h-156v437z m115-56c-11 12-32 12-44 0-6-6-9-14-9-22 0-8 3-16 9-22 6-6 14-9 22-9s17 3 22 9c6 6 10 14 10 22 0 8-4 16-10 22z m72-53c8 0 16 3 22 9 6 6 9 14 9 22s-3 16-9 22c-11 12-32 12-44 0-6-6-9-14-9-22 0-8 3-16 9-22 6-6 14-9 22-9z m406-234h-312c-17 0-31-14-31-32s14-31 31-31h312c18 0 32 14 32 31s-14 32-32 32z m0-125h-312c-17 0-31-14-31-32s14-31 31-31h312c18 0 32 14 32 31s-14 32-32 32z" horiz-adv-x="1000" />
<glyph glyph-name="shield_left" unicode="&#xe8c6;" d="m275 62c6-6 14-9 22-9h672c17 0 31 14 31 31v532c0 17-14 31-31 31h-672c-8 0-16-3-22-9l-266-266c-12-12-12-32 0-44l266-266z m35 522h628v-468h-628l-234 234 234 234z" horiz-adv-x="1000" />
<glyph glyph-name="shield_right" unicode="&#xe8c7;" d="m31 53h672c8 0 16 3 22 9l266 266c12 12 12 32 0 44l-266 266c-6 6-14 9-22 9h-672c-17 0-31-14-31-31v-532c0-17 14-31 31-31z m32 531h627l235-234-235-234h-627v468z" horiz-adv-x="1000" />
<glyph glyph-name="shield_up" unicode="&#xe8c8;" d="m750-150c17 0 31 14 31 31v672c0 8-3 16-9 22l-265 266c-13 12-32 12-45 0l-265-266c-6-6-9-14-9-22v-672c0-17 14-31 31-31h531z m-500 690l234 235 235-235v-628h-469v628z" horiz-adv-x="1000" />
<glyph glyph-name="sinth" unicode="&#xe8cb;" d="m969 850h-938c-17 0-31-14-31-31v-938c0-17 14-31 31-31h938c17 0 31 14 31 31v938c0 17-14 31-31 31z m-31-938h-875v876h875v-876z m-782 688h63v-594c0-17 14-31 31-31s31 14 31 31v594h63c17 0 31 14 31 31s-14 32-31 32h-63v31c0 17-14 31-31 31s-31-14-31-31v-31h-63c-17 0-31-14-31-32s14-31 31-31z m500-562h63v-32c0-17 14-31 31-31s31 14 31 31v32h63c17 0 31 14 31 31s-14 31-31 31h-63v594c0 17-14 31-31 31s-31-14-31-31v-594h-63c-17 0-31-14-31-31s14-31 31-31z m-250 281h63v-313c0-17 14-31 31-31s31 14 31 31v313h63c17 0 31 14 31 31s-14 31-31 31h-63v313c0 17-14 31-31 31s-31-14-31-31v-313h-63c-17 0-31-14-31-31s14-31 31-31z" horiz-adv-x="1000" />
<glyph glyph-name="smartphone" unicode="&#xe8cc;" d="m750 850h-500c-17 0-31-14-31-31v-938c0-17 14-31 31-31h500c17 0 31 14 31 31v938c0 17-14 31-31 31z m-31-938h-438v876h438v-876z m-203 126h-32c-17 0-31-14-31-32s14-31 31-31h32c17 0 31 14 31 31s-14 32-31 32z m-125 625h218c18 0 32 14 32 31s-14 31-32 31h-218c-18 0-32-14-32-31s14-31 32-31z" horiz-adv-x="1000" />
<glyph glyph-name="sold4" unicode="&#xe8cd;" d="m332 374c-23 6-25 8-25 14 0 4 5 7 13 7 7 0 16-3 25-8 3-2 6-3 10-3 10 0 17 8 17 18 0 7-4 12-8 15-13 8-28 12-44 12-30 0-50-18-50-44 0-30 21-38 46-45 24-6 24-9 24-13 0-8-12-8-15-8-11 0-21 3-31 11-4 2-7 3-11 3-10 0-18-7-18-17 0-6 3-11 7-15 15-10 34-16 52-16 32 0 53 17 53 45 0 28-22 38-45 44z m131 55c-42 0-75-32-75-73 0-41 32-72 74-72 42 0 75 32 75 73 0 41-32 72-74 72z m0-110c-21 0-36 17-36 38 0 21 15 37 35 37 21 0 36-16 36-38 0-21-15-37-35-37z m178-2h-58v92c0 11-6 19-16 19s-17-8-17-19v-104c0-10 13-22 23-22h68c10 0 18 7 18 17 0 10-8 17-18 17z m86 116h-37c-11 0-23-14-23-25v-103c0-10 12-22 23-22h37c43 0 74 35 74 76 0 40-31 74-74 74z m0-116h-10v83h10c21 0 35-20 35-42 0-21-14-41-35-41z m-544-217h700v517h-700v-517z m50 467h600v-417h-600v417z" horiz-adv-x="1000" />
<glyph glyph-name="spread" unicode="&#xe8ce;" d="m965 787l-465-62-465 62c-9 2-18-1-24-7s-11-15-11-24v-750c0-15 12-29 27-31l469-62c1 0 3-1 4-1s3 1 4 1l469 62c15 2 27 16 27 31v750c0 9-4 18-11 24-6 6-15 8-24 7z m-902-66l406-55v-687l-406 55v687z m875-687l-407-55v687l407 55v-687z m-786 535l250-31c2 0 3 0 4 0 16 0 29 11 31 27 2 17-10 33-27 35l-250 31c-17 2-33-10-35-27-2-17 10-33 27-35z m258-125l-250 31c-17 2-33-10-35-27-2-17 10-33 27-35l250-31c2-1 3-1 4-1 16 0 29 12 31 28 2 17-10 32-27 35z m0-157l-250 32c-17 2-33-10-35-28-2-17 10-32 27-34l250-32c2 0 3 0 4 0 16 0 29 12 31 27 2 18-10 33-27 35z m0-156l-250 31c-17 2-33-10-35-27-2-17 10-33 27-35l250-31c2 0 3 0 4 0 16 0 29 11 31 27 2 17-10 33-27 35z m184 407c1 0 2 0 4 0l250 31c17 2 29 18 27 35-2 17-18 29-35 27l-250-31c-17-2-29-18-27-35 2-16 15-27 31-27z m0-157c1 0 2 0 4 1l250 31c17 2 29 18 27 35-2 17-18 29-35 27l-250-31c-17-3-29-18-27-35 2-16 15-28 31-28z m0-156c1 0 2 0 4 0l250 32c17 2 29 17 27 34-2 18-18 30-35 28l-250-32c-17-2-29-17-27-35 2-15 15-27 31-27z m246-63l-250-31c-17-2-29-18-27-35 2-16 15-27 31-27 1 0 2 0 4 0l250 31c17 2 29 18 27 35-2 17-18 29-35 27z" horiz-adv-x="1000" />
<glyph glyph-name="squares" unicode="&#xe8cf;" d="m31 413h375c18 0 32 14 32 31v375c0 17-14 31-32 31h-375c-17 0-31-14-31-31v-375c0-17 14-31 31-31z m32 375h312v-313h-312v313z m937 31c0 17-14 31-31 31h-375c-17 0-31-14-31-31v-375c0-17 14-31 31-31h375c17 0 31 14 31 31v375z m-62-344h-313v313h313v-313z m-907-625h391c17 0 31 14 31 31v391c0 17-14 31-31 31h-391c-17 0-31-14-31-31v-391c0-17 14-31 31-31z m32 391h328v-329h-328v329z m906 47h-375c-17 0-31-14-31-32v-375c0-17 14-31 31-31h375c17 0 31 14 31 31v375c0 18-14 32-31 32z m-31-376h-313v313h313v-313z" horiz-adv-x="1000" />
<glyph glyph-name="stormy" unicode="&#xe8d0;" d="m647 94c12 12 12 32 0 44-12 12-32 12-44 0l-90-90 94-62-35-36c-12-12-12-32 0-44 6-6 14-9 22-9s16 3 22 9l89 89-93 63 35 36z m-250 0c12 12 12 32 0 44-12 12-32 12-44 0l-90-90 94-62-35-36c-12-12-12-32 0-44 6-6 14-9 22-9s16 3 22 9l89 89-93 63 35 36z m477 394c-15 176-163 315-343 315-159 0-297-103-337-250h-6c-104 0-188-84-188-187s84-188 188-188h656c86 0 156 70 156 156 0 76-54 140-126 154z m-30-247h-656c-69 0-125 56-125 125s56 125 125 125h31c15 0 28 10 31 25 24 130 142 225 281 225 155 0 282-126 282-282 0-17 14-31 31-31 52 0 94-42 94-94s-42-93-94-93z" horiz-adv-x="1000" />
<glyph glyph-name="tshirt" unicode="&#xe8d1;" d="m969 788h-313c-10 0-19-5-25-13l-84-112h-94l-84 112c-6 8-15 13-25 13h-313c-17 0-31-14-31-32v-250c0-17 14-31 31-31h157v-531c0-18 14-32 31-32h562c18 0 32 14 32 32v531h156c17 0 31 14 31 31v250c0 18-14 32-31 32z m-31-250h-157c-17 0-31-14-31-32v-531h-500v531c0 18-14 32-31 32h-156v187h265l85-112c5-8 15-13 25-13h125c9 0 19 5 25 13l84 112h266v-187z" horiz-adv-x="1000" />
<glyph glyph-name="tv_monitor" unicode="&#xe8d2;" d="m969 725h-938c-17 0-31-14-31-31v-625c0-17 14-31 31-31h438v-126h-125c-17 0-31-14-31-31s14-31 31-31h312c18 0 32 14 32 31s-14 31-32 31h-125v126h438c17 0 31 14 31 31v625c0 17-14 31-31 31z m-31-625h-875v563h875v-563z" horiz-adv-x="1000" />
<glyph glyph-name="umbrella" unicode="&#xe8d3;" d="m500 850c-428 0-499-397-500-401-1-9 2-18 7-25 6-7 15-11 24-11h438v-469c0-52 42-94 94-94s93 42 93 94c0 17-14 31-31 31s-31-14-31-31c0-18-14-32-31-32s-32 14-32 32v469h438c0 0 0 0 0 0 17 0 31 14 31 31 0 3 0 7-1 10-11 48-98 396-499 396z m-429-375c27 90 124 313 429 313s402-223 429-313h-858z" horiz-adv-x="1000" />
<glyph glyph-name="video_cam" unicode="&#xe8d7;" d="m984 565c-10 5-22 5-32-1l-202-126v100c0 17-14 31-31 31h-81l-125 125h-419c-17 0-31-14-31-31s14-32 31-32h393l63-62h-519c-17 0-31-14-31-31v-500c0-18 14-32 31-32h688c17 0 31 14 31 32v99l202-126c5-3 11-5 17-5 5 0 10 2 15 4 10 6 16 16 16 28v500c0 11-6 21-16 27z m-46-471l-203 126c-9 6-21 7-31 1-10-5-16-16-16-27v-125h-625v437h625v-125c0-11 6-22 16-27 10-6 22-5 31 1l203 126v-387z m-813 287h63c17 0 31 14 31 32s-14 31-31 31h-63c-17 0-31-14-31-31s14-32 31-32z m250-62h-250c-17 0-31-14-31-31v-125c0-18 14-32 31-32h250c17 0 31 14 31 32v125c0 17-14 31-31 31z m-31-125h-188v62h188v-62z" horiz-adv-x="1000" />
<glyph glyph-name="beer" unicode="&#xe8d8;" d="m1000 694c0 69-56 125-125 125-10 0-19-2-28-4-27 22-60 35-97 35-30 0-59-9-83-24-20 15-46 24-73 24-38 0-72-17-95-44-19 8-40 13-61 13-13 0-26-2-38-5-22 22-53 36-87 36-69 0-125-56-125-125 0-46 25-86 62-108v-17h-187c-35 0-63-28-63-62v-375c0-35 28-63 63-63h187v-188c0-34 28-62 63-62h562c35 0 63 28 63 62v674c37 22 62 62 62 108z m-750-531h-156c-17 0-31 14-31 31v312c0 18 14 32 31 32h156v-375z m625-219c0-18-14-32-31-32h-500c-17 0-31 14-31 32v625c28-38 73-63 125-63 30 0 58 9 82 25 21-16 46-25 74-25 38 0 71 18 94 44 19-8 40-12 62-12 37 0 70 13 97 34 9-2 18-3 28-3v-625z m20 691c-7-2-13-4-20-4-17 0-32 7-43 18-11-19-27-34-47-42-11-4-22-7-35-7-12 0-23 2-34 7-15 5-27 15-37 27-8-7-16-13-25-18-3-11-9-22-17-30-11-10-26-17-43-17-10 0-19 2-27 6-17 8-29 23-34 41-3 2-7 4-11 7-9-19-23-34-42-43-13-7-27-11-42-11-33 0-61 16-78 41-10 15-16 33-16 53 0 3 0 6 1 9-10-6-21-9-32-9-12 0-22 3-31 8-19 10-32 31-32 54 0 35 28 63 63 63 9 0 17-2 25-6 20-9 34-28 36-51 16 15 37 24 59 25 2 0 3 0 5 0 11 0 23-2 33-6 15-6 28-15 38-27 7 6 16 12 24 17 3 12 9 22 18 30 11 11 26 18 43 18 9 0 18-3 27-7 16-8 29-23 33-41 4-2 8-4 11-6 9 18 24 33 42 43 13 6 28 11 43 11 13 0 24-3 35-7 20-9 36-23 47-42 11 11 26 17 43 17 7 0 13-1 20-3 24-8 43-32 43-59s-19-51-43-59z m-395-191c-17 0-31-14-31-31v-344c0-17 14-31 31-31s31 14 31 31v344c0 17-14 31-31 31z m188 0c-18 0-32-14-32-31v-344c0-17 14-31 32-31s31 14 31 31v344c0 17-14 31-31 31z" horiz-adv-x="1000" />
<glyph glyph-name="bell" unicode="&#xe8d9;" d="m906 42c-53 14-93 62-93 121v312c0 141-93 259-221 299-8 43-46 76-92 76s-84-33-92-76c-128-40-220-158-220-299v-312c0-59-40-107-94-121 0 0-31-9-31-36 0-17 14-31 31-31h281c0-69 56-125 125-125s125 56 125 125h281c18 0 32 14 32 31 0 28-32 36-32 36z m-406-130c-34 0-62 28-62 63h125c0-35-28-63-63-63z m-298 126c30 33 48 77 48 125v312c0 109 71 202 168 236 16 6 33 10 51 12v33c0 18 14 32 31 32s31-14 31-32v-33c18-2 35-6 51-12 98-34 168-127 168-236v-312c0-48 18-92 48-125h-596z" horiz-adv-x="1000" />
<glyph glyph-name="watch-1" unicode="&#xe8db;" d="m313-150h375c17 0 31 14 31 31v204c76 63 125 159 125 265s-49 202-125 265v204c0 17-14 31-31 31h-375c-18 0-32-14-32-31v-204c-76-63-125-158-125-265s49-202 125-265v-204c0-17 14-31 32-31z m343 62h-312v132c47-24 100-38 156-38s109 14 156 38v-132z m-312 876h312v-132c-47 24-100 38-156 38s-109-14-156-38v132z m-125-438c0 155 126 281 281 281s281-126 281-281-126-281-281-281-281 126-281 281z m267-28l125-62c5-3 9-4 14-4 11 0 23 7 28 18 8 15 1 34-14 42l-108 53v169c0 17-14 31-31 31s-31-14-31-31v-188c0-12 6-23 17-28z" horiz-adv-x="1000" />
<glyph glyph-name="book-closed" unicode="&#xe8dc;" d="m875 850h-750c-34 0-62-28-62-62v-813c0-69 56-125 125-125h687c35 0 63 28 63 62v876c0 34-28 62-63 62z m-750-94c0 18 14 32 31 32h32v-688c-23 0-44-7-63-17v673z m750-812c0-18-14-32-31-32h-656c-35 0-63 28-63 63s28 63 63 63h687v-94z m0 156h-625v688h594c17 0 31-14 31-32v-656z m-469 438h125c18 0 32 14 32 31s-14 31-32 31h-125c-17 0-31-14-31-31s14-31 31-31z m313-63h-313c-17 0-31-14-31-31s14-31 31-31h313c17 0 31 14 31 31s-14 31-31 31z" horiz-adv-x="1000" />
<glyph glyph-name="book-opened" unicode="&#xe8dd;" d="m384 286l-219 63c-17 4-34-5-39-22-4-16 5-33 22-38l218-63c3-1 6-1 9-1 14 0 26 9 30 23 5 16-5 34-21 38z m0 125l-219 63c-17 4-34-5-39-22-4-16 5-34 22-38l218-63c3-1 6-1 9-1 14 0 26 9 30 23 5 16-5 34-21 38z m-236 128l218-63c3-1 6-1 9-1 14 0 26 9 30 23 5 16-5 34-21 38l-219 63c-17 4-34-5-39-22-4-16 5-33 22-38z m687-190l-219-63c-16-4-26-22-21-38 4-14 16-23 30-23 3 0 6 0 9 1l218 63c17 5 27 22 22 38-5 17-22 26-39 22z m-210 1c3 0 6 0 9 1l218 63c17 4 27 22 22 38-5 17-22 26-39 22l-219-63c-16-4-26-22-21-38 4-14 16-23 30-23z m0 125c3 0 6 0 9 1l218 63c17 5 27 22 22 38-5 17-22 26-39 22l-219-63c-16-4-26-22-21-38 4-14 16-23 30-23z m363 369c-8 5-18 8-27 5l-461-123-461 123c-9 3-19 0-27-5s-12-16-12-25v-813c0-14 10-26 23-30l469-125c3-1 5-1 8-1s5 0 8 1l469 125c14 4 23 16 23 30v813c0 9-4 19-12 25z m-50-689l-407-108v623l407 108v-623z m-875 623l406-108v-623l-406 108v623z m0-687l406-109v-60l-406 108v61z m468-169v60l407 109v-61l-407-108z" horiz-adv-x="1000" />
<glyph glyph-name="box" unicode="&#xe8de;" d="m938 850h-875c-35 0-63-28-63-62v-188c0-34 28-62 63-62v-626c0-34 28-62 62-62h750c35 0 63 28 63 62v626c34 0 62 28 62 62v188c0 34-28 62-62 62z m-63-906c0-18-14-32-31-32h-688c-17 0-31 14-31 32v594h750v-594z m63 687c0-17-14-31-32-31h-812c-17 0-31 14-31 31v125c0 18 14 32 31 32h812c18 0 32-14 32-32v-125z m-594-343h312c18 0 32 14 32 31s-14 31-32 31h-312c-17 0-31-14-31-31s14-31 31-31z" horiz-adv-x="1000" />
<glyph glyph-name="briefcase-1" unicode="&#xe8df;" d="m938 663h-188v125c0 34-28 62-62 62h-375c-35 0-63-28-63-62v-125h-187c-35 0-63-28-63-63v-688c0-34 28-62 63-62h875c34 0 62 28 62 62v688c0 35-28 63-62 63z m-625 93c0 18 14 32 31 32h312c18 0 32-14 32-32v-93h-375v93z m625-812c0-18-14-32-32-32h-812c-17 0-31 14-31 32v250h343v-63c0-17 14-31 32-31h125c17 0 31 14 31 31v63h344v-250z m-407 219h-62v125h62v-125z m407 93h-344v63c0 17-14 31-31 31h-125c-18 0-32-14-32-31v-63h-343v313c0 17 14 31 31 31h812c18 0 32-14 32-31v-313z" horiz-adv-x="1000" />
<glyph glyph-name="browser" unicode="&#xe8e0;" d="m938 850h-875c-35 0-63-28-63-62v-876c0-34 28-62 63-62h875c34 0 62 28 62 62v876c0 34-28 62-62 62z m0-906c0-18-14-32-32-32h-812c-17 0-31 14-31 32v594h875v-594z m0 656h-875v156c0 18 14 32 31 32h812c18 0 32-14 32-32v-156z m-469 125h-188c-17 0-31-14-31-31s14-31 31-31h188c17 0 31 14 31 31s-14 31-31 31z m62-656h250c18 0 32 14 32 31v250c0 17-14 31-32 31h-250c-17 0-31-14-31-31v-250c0-17 14-31 31-31z m32 250h187v-188h-187v188z m-344 0h187c18 0 32 14 32 31s-14 31-32 31h-187c-17 0-31-14-31-31s14-31 31-31z m0-125h187c18 0 32 14 32 31s-14 31-32 31h-187c-17 0-31-14-31-31s14-31 31-31z m0-125h187c18 0 32 14 32 31s-14 31-32 31h-187c-17 0-31-14-31-31s14-31 31-31z" horiz-adv-x="1000" />
<glyph glyph-name="brush-1" unicode="&#xe8e1;" d="m954 803c-62 62-163 62-225 0l-351-350c-65 10-140-5-211-77-100-99-109-194-117-285-6-61-12-125-47-195-6-12-3-27 6-37 10-9 25-12 37-6 70 35 134 41 195 47 92 8 186 17 286 117 71 71 86 146 76 211l351 351c62 62 62 162 0 224z m-472-741c-84-84-159-91-246-99-45-4-95-9-148-25 17 53 21 103 25 147 8 88 15 163 99 246 130 131 256 14 269 0 14-13 131-139 1-269z m100 234c-16 34-36 61-55 80-19 19-47 40-80 55l214 215 135-135-214-215z m327 327l-68-67-135 135 68 67c37 38 98 38 135 0 37-37 37-97 0-135z" horiz-adv-x="1000" />
<glyph glyph-name="building-1" unicode="&#xe8e2;" d="m938 663h-313v125c0 34-28 62-62 62h-500c-35 0-63-28-63-62v-876c0-34 28-62 63-62h500 375c34 0 62 28 62 62v688c0 35-28 63-62 63z m-594-751h-63v126h63v-126z m219 0h-157v157c0 17-14 31-31 31h-125c-17 0-31-14-31-31v-157h-125c-17 0-31 14-31 32v812c0 18 14 32 31 32h437c18 0 32-14 32-32v-844z m375 32c0-18-14-32-32-32h-281v688h281c18 0 32-14 32-31v-625z" horiz-adv-x="1000" />
<glyph glyph-name="bus" unicode="&#xe8e3;" d="m969 538v125c0 103-84 187-188 187h-562c-104 0-188-84-188-187v-125c-17 0-31-14-31-32v-125c0-17 14-31 31-31v-312c0-35 28-63 63-63v-94c0-17 14-31 31-31h125c17 0 31 14 31 31v94h438v-94c0-17 14-31 31-31h125c17 0 31 14 31 31v94c35 0 63 28 63 63v312c17 0 31 14 31 31v125c0 18-14 32-31 32z m-750 250h562c46 0 86-26 108-63h-778c22 37 62 63 108 63z m-125-125h375v-313h-375v313z m125-751h-63v63h63v-63z m625 0h-63v63h63v-63z m62 157c0-17-14-31-31-31h-750c-17 0-31 14-31 31v219h812v-219z m0 281h-375v313h375v-313z" horiz-adv-x="1000" />
<glyph glyph-name="calendar-2" unicode="&#xe8e4;" d="m938 788h-157v31c0 17-14 31-31 31s-31-14-31-31v-31h-438v31c0 17-14 31-31 31s-31-14-31-31v-31h-156c-35 0-63-28-63-63v-813c0-34 28-62 63-62h875c34 0 62 28 62 62v813c0 35-28 63-62 63z m0-844c0-18-14-32-32-32h-812c-17 0-31 14-31 32v594h875v-594z m0 656h-875v94c0 17 14 31 31 31h125v-31c0-17 14-31 31-31s31 14 31 31v31h438v-31c0-17 14-31 31-31s31 14 31 31v31h125c18 0 32-14 32-31v-94z m-688-250h63c17 0 31 14 31 31s-14 32-31 32h-63c-17 0-31-14-31-32s14-31 31-31z m438 0h62c17 0 31 14 31 31s-14 32-31 32h-62c-18 0-32-14-32-32s14-31 32-31z m-219 0h62c18 0 32 14 32 31s-14 32-32 32h-62c-17 0-31-14-31-32s14-31 31-31z m-219-156h63c17 0 31 14 31 31s-14 31-31 31h-63c-17 0-31-14-31-31s14-31 31-31z m438 0h62c17 0 31 14 31 31s-14 31-31 31h-62c-18 0-32-14-32-31s14-31 32-31z m-219 0h62c18 0 32 14 32 31s-14 31-32 31h-62c-17 0-31-14-31-31s14-31 31-31z m-219-156h63c17 0 31 14 31 31s-14 31-31 31h-63c-17 0-31-14-31-31s14-31 31-31z m219 0h62c18 0 32 14 32 31s-14 31-32 31h-62c-17 0-31-14-31-31s14-31 31-31z" horiz-adv-x="1000" />
<glyph glyph-name="car" unicode="&#xe8e5;" d="m905 408c1 3 1 5 1 7-1 16-36 373-281 373h-250c-222 0-281-246-281-375 0-2 0-3 1-5-55-13-95-62-95-120v-125c0-70 56-125 125-125v-94c0-18 14-32 31-32h125c18 0 32 14 32 32v94h375v-94c0-18 14-32 31-32h125c17 0 31 14 31 32v94c69 0 125 55 125 125v125c0 58-40 107-95 120z m-530 317h250c178 0 215-282 219-312h-688c0 12 3 312 219 312z m-125-750h-62v63h62v-63z m563 0h-63v63h63v-63z m125 188c0-35-28-63-63-63h-750c-34 0-62 28-62 63v125c0 34 28 62 62 62h750c35 0 63-28 63-62v-125z m-282 93h-312c-17 0-31-14-31-31s14-31 31-31h312c18 0 32 14 32 31s-14 31-32 31z" horiz-adv-x="1000" />
<glyph glyph-name="chart-line" unicode="&#xe8e6;" d="m938 850h-875c-35 0-63-28-63-62v-876c0-34 28-62 63-62h875c34 0 62 28 62 62v439 0 437c0 34-28 62-62 62z m-844-62h812c18 0 32-14 32-32v-415l-287 164c3 10 5 21 5 33 0 69-56 125-125 125s-125-56-125-125c0-24 7-45 18-64l-361-361v643c0 18 14 32 31 32z m375-250c0 34 28 62 62 62s63-28 63-62-28-63-63-63-62 28-62 63z m437-626h-812c-17 0-31 14-31 32v81l405 405c19-11 40-17 63-17 35 0 67 14 90 37l317-181v-325c0-18-14-32-32-32z" horiz-adv-x="1000" />
<glyph glyph-name="geolocalizator" unicode="&#xe8e7;" d="m625 491c0 69-56 125-125 125s-125-56-125-125 56-125 125-125 125 56 125 125z m-187 0c0 34 28 62 62 62s63-28 63-62-28-63-63-63-62 28-62 63z m62-641c8 0 17 4 23 11 14 15 338 385 336 629 0 199-162 360-359 360-198 0-359-161-359-360 0-244 321-614 335-629 6-7 14-11 24-11z m0 938c163 0 296-134 297-298 1-185-223-471-297-560-74 89-297 375-297 560 0 164 133 298 297 298z" horiz-adv-x="1000" />
<glyph glyph-name="graph" unicode="&#xe8e9;" d="m969-88h-31v438c0 35-28 63-63 63h-94c-34 0-62-28-62-63v-438h-31v751c0 34-28 62-63 62h-94c-34 0-62-28-62-62v-751h-31v282c0 34-28 62-63 62h-94c-34 0-62-28-62-62v-282h-156v126h62c17 0 31 14 31 31s-14 31-31 31h-62v94c17 0 31 14 31 31s-14 31-31 31v94h62c17 0 31 14 31 31s-14 32-31 32h-62v93c17 0 31 14 31 32s-14 31-31 31v94h62c17 0 31 14 31 31s-14 31-31 31h-62v94c0 17-14 31-32 31s-31-14-31-31v-907c0-34 28-62 63-62h906c17 0 31 14 31 31s-14 31-31 31z m-188 438h94v-438h-94v438z m-250 313h94v-751h-94v751z m-250-469h94v-282h-94v282z" horiz-adv-x="1000" />
<glyph glyph-name="graph_descending" unicode="&#xe8ea;" d="m969-88h-906v126h62c17 0 31 14 31 31s-14 31-31 31h-62v94c17 0 31 14 31 31s-14 31-31 31v94h62c17 0 31 14 31 31s-14 32-31 32h-62v93c17 0 31 14 31 32s-14 31-31 31v94h62c17 0 31 14 31 31s-14 31-31 31h-62v94c0 17-14 31-32 31s-31-14-31-31v-907c0-34 28-62 63-62h906c17 0 31 14 31 31s-14 31-31 31z m-478 648l-156 156c-13 12-32 12-45 0s-12-32 0-44l135-134-72-72c-12-12-12-32 0-44l322-322h-81c-17 0-31-14-31-31s14-31 31-31h156c2 0 4 0 6 0 1 0 2 1 3 1 1 0 2 1 3 1 1 0 2 1 3 2 1 0 2 0 2 1 4 2 7 5 9 9 1 0 1 1 1 2 1 1 1 2 2 3 0 1 1 2 1 3 0 1 1 2 1 3 0 2 0 4 0 6v156c0 17-14 31-31 31s-31-14-31-31v-81l-300 300 72 71c12 13 12 32 0 45z" horiz-adv-x="1000" />
<glyph glyph-name="graph_rising" unicode="&#xe8eb;" d="m969-88h-906v126h62c17 0 31 14 31 31s-14 31-31 31h-62v94c17 0 31 14 31 31s-14 31-31 31v94h62c17 0 31 14 31 31s-14 32-31 32h-62v93c17 0 31 14 31 32s-14 31-31 31v94h62c17 0 31 14 31 31s-14 31-31 31h-62v94c0 17-14 31-32 31s-31-14-31-31v-907c0-34 28-62 63-62h906c17 0 31 14 31 31s-14 31-31 31z m-94 407c17 0 31 14 31 31v156c0 2 0 4 0 6-1 1-1 2-1 3 0 1-1 2-1 3-1 1-1 2-2 3 0 1 0 2-1 3-2 3-5 6-9 8 0 1-1 1-2 2-1 0-2 1-3 1-1 1-2 1-3 1-1 0-2 1-3 1-2 0-4 1-6 1h-156c-17 0-31-14-31-32s14-31 31-31h81l-300-300-72 72c-12 12-32 12-44 0l-156-156c-12-12-12-32 0-44 6-6 14-9 22-9s16 3 22 9l134 134 72-72c12-12 32-12 44 0l322 322v-81c0-17 14-31 31-31z" horiz-adv-x="1000" />
<glyph glyph-name="hammer" unicode="&#xe8ec;" d="m710 310c-13 12-32 12-45 0l-24-25-253 253 165 165c13 12 13 32 0 44l-62 63c-12 12-32 12-44 0-1-1-34-33-75-33-24 0-47 11-69 33-12 12-32 12-44 0l-250-250c-12-13-12-32 0-45l156-156c7-6 15-9 23-9s16 3 22 9l134 134 252-252-24-25c-12-12-12-32 0-44l281-282c6-6 14-9 22-9s16 3 22 9l94 94c12 12 12 32 0 44l-281 282z m-522 116l-112 112 207 207c27-20 57-30 89-30 39 0 73 17 94 31l21-21-299-299z m687-469l-237 237 50 49 237-237-50-49z" horiz-adv-x="1000" />
<glyph glyph-name="heart-3" unicode="&#xe8ef;" d="m750 803c-109 0-203-55-250-135-47 80-141 135-250 135-164 0-250-141-250-281 0-327 464-609 484-621 5-3 10-4 16-4s11 1 16 4c20 12 484 294 484 621 0 140-86 281-250 281z m-250-838c-81 52-437 297-437 557 0 105 58 219 187 219 105 0 219-72 219-188 0-17 14-31 31-31s31 14 31 31c0 116 114 188 219 188 129 0 188-114 188-219 0-260-357-505-438-557z" horiz-adv-x="1000" />
<glyph glyph-name="lock_open" unicode="&#xe8f0;" d="m94 319v-438c0-17 14-31 31-31h750c17 0 31 14 31 31v438c0 17-14 31-31 31h-594v219c0 120 98 219 219 219s219-99 219-219v-63c0-17 14-31 31-31s31 14 31 31v63c0 155-126 281-281 281s-281-126-281-281v-219h-94c-17 0-31-14-31-31z m62-31h688v-376h-688v376z m344-63c-52 0-94-42-94-94 0-40 26-75 63-88v-37c0-17 14-31 31-31s31 14 31 31v37c37 13 63 48 63 88 0 52-42 94-94 94z m0-125c-17 0-31 14-31 31s14 32 31 32 31-14 31-32-14-31-31-31z" horiz-adv-x="1000" />
<glyph glyph-name="magnifier" unicode="&#xe8f2;" d="m710 278c-13 13-32 13-45 0l-24-24-60 59c47 57 75 130 75 209 0 181-147 328-328 328s-328-147-328-328 147-328 328-328c79 0 152 28 209 75l59-60-24-24c-12-13-12-32 0-45l281-281c6-6 14-9 22-9s16 3 22 9l94 94c12 12 12 32 0 44l-281 281z m-647 244c0 146 119 266 265 266s266-120 266-266-119-266-266-266-265 119-265 266z m812-597l-237 238 50 49 237-237-50-50z" horiz-adv-x="1000" />
<glyph glyph-name="mail-2" unicode="&#xe8f5;" d="m969 663h-938c-17 0-31-14-31-32v-562c0-17 14-31 31-31h938c17 0 31 14 31 31v562c0 18-14 32-31 32z m-100-63l-369-229-369 229h738z m-806-500v469l437-271 438 271v-469h-875z" horiz-adv-x="1000" />
<glyph glyph-name="mail_open" unicode="&#xe8f6;" d="m980 473l-136 54v292c0 17-14 31-31 31h-625c-18 0-32-14-32-31v-292l-136-54c-13-5-20-17-20-29h0v-563c0-17 14-31 31-31h938c17 0 31 14 31 31v563h0c0 12-7 24-20 29z m-74-38l-62-38v63l62-25z m-125 353v-282c0 0 0 0 0 0v-148l-281-174-281 174v148c0 0 0 0 0 0v282h562z m-625-391l-61 38 61 25v-63z m-93-485v470l421-262c5-3 10-4 16-4s11 1 17 4l421 262v-470h-875z m500 751h125c17 0 31 14 31 31s-14 31-31 31h-125c-18 0-32-14-32-31s14-31 32-31z m-250-125h375c17 0 31 14 31 31s-14 31-31 31h-375c-18 0-32-14-32-31s14-31 32-31z m0-125h375c17 0 31 14 31 31s-14 31-31 31h-375c-18 0-32-14-32-31s14-31 32-31z" horiz-adv-x="1000" />
<glyph glyph-name="map" unicode="&#xe8f7;" d="m986 798c-8 6-19 7-29 3l-301-120-301 120c-7 3-15 3-23 0l-312-125c-12-5-20-16-20-29v-719c0-10 5-20 14-26 5-3 11-5 17-5 4 0 8 1 12 2l301 121 301-121c7-3 15-3 23 0l312 125c12 5 20 16 20 29v719c0 10-5 20-14 26z m-611-72l250-100v-652l-250 100v652z m-312-100l250 100v-652l-250-100v652z m875-552l-250-100v652l250 100v-652z" horiz-adv-x="1000" />
<glyph glyph-name="measuring2" unicode="&#xe8f8;" d="m980 363l-384 283c-18 13-41 13-59 0l-379-283c-22-16-26-47-10-69 16-22 47-26 69-10l51 38v-383c0-27 22-49 49-49h499c28 0 50 22 50 49v386l55-41c9-7 20-10 30-10 15 0 30 7 39 20 17 22 12 53-10 69z m-213 18v-393h-401v393c0 5-1 9-2 13l203 151 203-149c-2-5-3-10-3-15z m135 287c14 0 25 11 25 25v92c0 14-11 25-25 25h-690c-13 0-24-11-24-25v-92c0-14 11-25 24-25 14 0 25 11 25 25v68h64v-30c0-9 7-16 16-16s16 7 16 16v30h63v-30c0-9 7-16 16-16s17 7 17 16v30h62v-30c0-9 7-16 16-16s17 7 17 16v30h62v-30c0-9 7-16 16-16s17 7 17 16v30h62v-30c0-9 7-16 16-16 9 0 17 7 17 16v30h62v-30c0-9 7-16 16-16s17 7 17 16v30h68v-68c0-14 11-25 25-25z m-760-748c0 14-11 25-25 25h-68v63h30c9 0 17 8 17 17s-8 16-17 16h-30v62h30c9 0 17 8 17 17 0 9-8 16-17 16h-30v63h30c9 0 17 7 17 16s-8 16-17 16h-30v63h30c9 0 17 7 17 16 0 9-8 16-17 16h-30v63h30c9 0 17 7 17 16s-8 17-17 17h-30v62h30c9 0 17 7 17 16 0 9-8 17-17 17h-30v68h68c14 0 25 11 25 25s-11 24-25 24h-92c-14 0-25-11-25-24v-690c0-14 11-25 25-25h92c14 0 25 12 25 25z" horiz-adv-x="1000" />
<glyph glyph-name="old_video_cam" unicode="&#xe8ff;" d="m984 502c-9 6-21 6-31 0l-219-129v102c0 17-14 31-31 31h-79c30 34 48 77 48 125 0 104-84 188-188 188-88 0-163-62-182-145-20 12-43 20-68 20-68 0-125-56-125-125 0-23 7-44 17-63h-95c-17 0-31-14-31-31v-375c0-14 10-27 24-30l672-157c2 0 5-1 7-1 7 0 14 3 20 7 7 6 11 15 11 25v101l219-128c10-6 22-6 31 0 10 5 16 15 16 27v531c0 11-6 22-16 27z m-500 254c69 0 125-56 125-125s-56-125-125-125-125 56-125 125 56 125 125 125z m-139-250h-2c0 1 0 1 1 2 0-1 1-1 1-2z m-173 63c0 34 28 62 62 62s63-28 63-62-28-63-63-63-62 28-62 63z m766-571l-219 129c-10 6-22 6-31 0-10-5-16-16-16-27v-117l-609 142v319h609v-125c0-11 6-22 16-27 9-6 21-6 31 0l219 128v-422z" horiz-adv-x="1000" />
<glyph glyph-name="paper_pen" unicode="&#xe900;" d="m830-36l34-69c10-18 25-29 42-29s33 11 42 29l35 69c10 20 17 52 17 74v718c0 35-28 63-62 63h-63c-34 0-62-28-62-63h-32c-34 0-62-28-62-62v-125c0-17 14-31 31-31s31 14 31 31v125h32v-656c0-22 7-54 17-74z m45 792h63v-718c0-13-6-35-11-46l-21-41-20 41c-6 11-11 33-11 46v718z m-812-875h562c35 0 63 28 63 63v625c0 25-14 57-32 75l-143 144c-18 18-50 31-75 31h-375c-35 0-63-28-63-63v-812c0-35 28-63 63-63z m518 750h-81v81l81-81z m-518 125h375v-125c0-34 28-62 62-62h125v-625h-562v812z m93-156h172c17 0 31 14 31 31s-14 32-31 32h-172c-17 0-31-14-31-32s14-31 31-31z m375-94h-375c-17 0-31-14-31-31s14-31 31-31h375c18 0 32 14 32 31s-14 31-32 31z m0-125h-375c-17 0-31-14-31-31s14-31 31-31h375c18 0 32 14 32 31s-14 31-32 31z m0-125h-375c-17 0-31-14-31-31s14-31 31-31h375c18 0 32 14 32 31s-14 31-32 31z m0-125h-375c-17 0-31-14-31-31s14-31 31-31h375c18 0 32 14 32 31s-14 31-32 31z" horiz-adv-x="1000" />
</font>
</defs>
</svg>
